img image001 image001 image001 image001 image001 image001 image001 image001 image001 image001 image001 image001 image001 image001 image001

Planets Sun Sun Sun

COVID-19 - Последняя информация о коронавирусе на сайте Минздрава


Статистика раздачи
Автор: Снежана | Размер: 2.38 ГБ | Добавлен: 22 май 2020
Раздают: 4    Качают: 0


Скачать торрент
Скачать торрент
Описание торрента

СообщениеДобавлено: 22 май 2020 

Когда наступит завтра (1-2 серии)

Перевод: Не требуется, cубтитры: отсутствуют
Формат: WEB-DL 1080p, MKV, H.264, AC3
Страна: Россия
Режиссер: Сергей Чистяков
Жанр: драма
Всего серий: ?
Продолжительность: 2 x ~ 00:35:00
Год выпуска: 2020

В ролях: Евгений Антонов, Наталия Варфоломеева, Андрей Марусин, Анастасия Подосинникова

Описание: Коронавирус появился неожиданно и за считанные дни перевернул мир, внес необратимые изменения в наш быт. Сериал «Когда наступит завтра» состоит из нескольких историй, герои которых оказываются на грани и не знают, что принесет им следующий день.

Рейтинг и доп. информация: Нет

Видео: 1920x1080, (16:9), 25 fps, AVC MPEG-4 (x264), High@L4 ~ 5000 kbps , 0.096 bit/pixel
Аудио: 48 kHz, АС3, 2/0 (L,R), ~192.00 kbps avg
Внимание! Раздача ведётся путём добавления новых серий. При каждом добавлении создаётся новый торрент.
Чтобы начать докачку новой серии, пользователям необходимо сделать следующее:
1. Остановить скачивание.
2. Удалить старый торрент у себя из клиента (старые серии удалять не надо).
3. Скачать новый торрент и запустить его у себя в клиенте вместо старого, при этом указать клиенту путь в старую папку куда и должно происходить скачивание новых серий. Ваш клиент при этом должен произвести хеширование (проверку) старой папки и будет докачивать только те серии, которых у вас ещё нет. Старые серии при этом не удаляются, а продолжают раздаваться! Eсли вы уже удалили старые серии, то предотвратить повторную закачку старых серий можно, отжав галочку в соответствующих местах при запуске нового торрента.


Реклама, любого вида, отсутствует.

Общее
Уникальный идентификатор : 230331133117075405116611017596803069408 (0xAD4829A2BDB7646AACEF572AD865B5E0)
Полное имя : C:\Kogda.nastupit.zavtra.2020.WEB-DL.(1080p).ExKinoRay\Kogda.nastupit.zavtra.e01.2020.WEB-DL.(1080p).ExKinoRay.mkv
Формат : Matroska
Версия формата : Version 2
Размер файла : 1,21 Гбайт
Продолжительность : 32 м. 32 с.
Общий поток : 5 306 Кбит/сек
Дата кодирования : UTC 2020-05-20 13:43:13
Программа кодирования : mkvmerge v5.8.0 (''No Sleep / Pillow'') built on Sep 2 2012 15:37:04
Библиотека кодирования : libebml v1.2.3 + libmatroska v1.3.0

Видео
Идентификатор : 1
Формат : AVC
Формат/Информация : Advanced Video Codec
Профиль формата : High@L4
Настройки формата : CABAC / 4 Ref Frames
Параметр CABAC формата : Да
Параметр RefFrames формата : 4 кадра
Идентификатор кодека : V_MPEG4/ISO/AVC
Продолжительность : 32 м. 32 с.
Битрейт : 5 000 Кбит/сек
Ширина : 1 920 пикселей
Высота : 1 080 пикселей
Соотношение сторон : 16:9
Режим частоты кадров : Постоянный
Частота кадров : 25,000 кадров/сек
Цветовое пространство : YUV
Субдискретизация насыщенности : 4:2:0
Битовая глубина : 8 бит
Тип развёртки : Прогрессивная
Бит/(Пиксели*Кадры) : 0.096
Размер потока : 1,14 Гбайт (94%)
Язык : Russian
Default : Да
Forced : Нет
Duration_Source : General_Duration

Аудио
Идентификатор : 2
Формат : AC-3
Формат/Информация : Audio Coding 3
Коммерческое название : Dolby Digital
Идентификатор кодека : A_AC3
Продолжительность : 32 м. 32 с.
Вид битрейта : Постоянный
Битрейт : 192 Кбит/сек
Каналы : 2 канала
Channel layout : L R
Частота : 48,0 КГц
Частота кадров : 31,250 кадров/сек (1536 SPF)
Метод сжатия : С потерями
Размер потока : 44,7 Мбайт (4%)
Язык : Russian
Service kind : Complete Main
Default : Да
Forced : Нет
Duration_Source : General_Duration









   Похожие торренты   Торрент   Размер 
В этой теме нет новых непрочитанных сообщений. Когда наступит завтра (1-3 серии) (Сергей Чистяков) [2020, драма, WEB-DL 1080p]

0 | 0

3.63 ГБ

В этой теме нет новых непрочитанных сообщений. Когда наступит завтра (1- серии) (Сергей Чистяков) [2020, драма, WEB-DL 1080p]

1 | 0

1.21 ГБ

В этой теме нет новых непрочитанных сообщений. Когда наступит завтра (1-3 серии) (Сергей Чистяков) [2020, драма, WEB-DLRip]

8 | 1

1.23 ГБ

В этой теме нет новых непрочитанных сообщений. Когда наступит завтра (1- серии) (Сергей Чистяков) [2020, драма, WEB-DLRip]

8 | 1

419.24 МБ

В этой теме нет новых непрочитанных сообщений. Когда наступит завтра (1-2 серии) (Сергей Чистяков) [2020, драма, WEB-DLRip]

20 | 0

825.74 МБ

В этой теме нет новых непрочитанных сообщений. Когда наступит завтра (1-3 серии) (Сергей Чистяков) [2020, драма, WEB-DLRip-AVC]

15 | 16

1.23 ГБ

В этой теме нет новых непрочитанных сообщений. Когда наступит завтра (1- серии) (Сергей Чистяков) [2020, драма, WEB-DLRip-AVC]

4 | 0

417.42 МБ




Вы не можете начинать темы
Вы не можете отвечать на сообщения
Вы не можете редактировать свои сообщения
Вы не можете удалять свои сообщения
Вы не можете добавлять вложения

Перейти:  
Контактная информация: rstracker[пёсик]yandex.ru
 Вход
ppkBB3cker v.2 © 2008-2014 @ PPK
[ Time : 0.021s | 17 Queries | GZIP : Off ]

cron