img image001 image001 image001 image001 image001 image001 image001 image001 image001 image001 image001 image001 image001 image001 image001

Planets Sun Sun Sun

COVID-19 - Последняя информация о коронавирусе на сайте Минздрава


Статистика раздачи
Автор: Снежана | Размер: 9.24 ГБ | Добавлен: 27 май 2020
Раздают: 3    Качают: 3
Скачать торрент
Скачать торрент
Описание торрента

СообщениеДобавлено: 27 май 2020 

Свои (2 сезон 1-18 серии из 46)

Перевод: Не требуется, cубтитры: отсутствуют
Формат: WEBRip-AVC, MKV, H.264, AC3
Страна: Россия
Режиссер: Александр Колесник, Михаил Колпахчиев
Жанр: детектив
Всего серий: 46
Продолжительность: 18 x ~ 00:39:00
Год выпуска: 2019

В ролях: Дмитрий Козельский, Вероника Норина, Игорь Лепихин, Полина Ястребова, Олег Жилин, Татьяна Трунова, Янина Лакоба, Эдуард Песков, Ксения Попова, Андрей Бодренков, Марьяна Мадоян, Александра Бражникова, Алексей Утеганов, Александр Койгеров, Алексей Мухин (II), Светлана Бухтоярова, Сергей Палмер, Екатерина Аликина (II), Арсений Александров, Лидия Рудь, Алина Мурзагалиева, Мария Ев-Ер, Алла Еминцева, Юрий Чулков, Наталья Далёкая, Руслан Китайгородский, Леон Словицкий, Анна Санникова, Дмитрий Олейник, Александра Маркина, Назар Денисов, Глеб Денисов, Юрий Уткин, Никита Плащевский, Анна Степанова, Татьяна Тихменёва, Артём Цыпин, Анастасия Чурсина, Маргарита Сакович, Екатерина Королева (II), Анастасия Чернова, Мария Фурина, Полина Войченко, Мария Радзивилл, Ольга Кожевникова, Анжелика Рева, Александра Красноперова, Ангелина Ластовская, Елена Дорофеева, Дмитрий Лиманов, Матильда Гассельблат-Прокофьева, Сергей Андриенко, Виктор Воронцов, Ирина Снеткова, Ольга Саханова, Ольга Афанасьева, Ксения Пацинская, Наталья Зыбенкова, Валентина Гущина, Денис Рейшахрит, Мария Столярова, Ася Прохорова, Евгений Лямин, Анастасия Солабуто, Дмитрий Глухов, Сергей Шоколов, Александр Петров (V)

Описание: Свои – это команда лучших экспертов из разных структур. После тщательного отбора их объединили в особый отряд для расследования самых запутанных преступлений, с которыми обычным следователям и оперативникам справиться не под силу. Свои – лучшие в своем деле. Отделом руководит оперативник с яркими лидерскими качествами Дмитрий Родимин. Его сыграл российский актер Дмитрий Козельский. Ему помогают куратор от Следственного комитета, Вероника Норина в роли Татьяны Оленёвой. А также криминалист, судмедэксперт, дознаватель, психолог, программист. Особую пикантность команде добавляет присутствие экстрасенса. В каждом деле они используют нетрадиционные подходы, чем и отличаются от обычных следователей. Их способности не ограничены, и что самое интересное, они сами далеко не всегда понимают, на что они способны.
«Время установить свои правила»

Рейтинг и доп. информация:


Видео: 1024x576, (16:9), 25 fps, AVC MPEG-4 (x264), ~ 1600 kbps , 0.109 bit/pixel
Аудио: 48 kHz, AC3 Dolby Digital, 2/0 (L,R) ch, ~192.00 kbps avg
Внимание! Раздача ведётся путём добавления новых серий. При каждом добавлении создаётся новый торрент.
Чтобы начать докачку новой серии, пользователям необходимо сделать следующее:
1. Остановить скачивание.
2. Удалить старый торрент у себя из клиента (старые серии удалять не надо).
3. Скачать новый торрент и запустить его у себя в клиенте вместо старого, при этом указать клиенту путь в старую папку куда и должно происходить скачивание новых серий. Ваш клиент при этом должен произвести хеширование (проверку) старой папки и будет докачивать только те серии, которых у вас ещё нет. Старые серии при этом не удаляются, а продолжают раздаваться! Eсли вы уже удалили старые серии, то предотвратить повторную закачку старых серий можно, отжав галочку в соответствующих местах при запуске нового торрента.


Общее
Уникальный идентификатор : 179192263107416397148133641023140217615 (0x86CF2CAE22E3FF6CBEBE6C76CBA1430F)
Полное имя : C:\Свои.S02.(2020).WEBRip.(AVC).Files-x\01.Свои.s02.(2020).WEBRip.(AVC).by.Серый1779.Files-x.mkv
Формат : Matroska
Версия формата : Version 2
Размер файла : 504 Мбайт
Продолжительность : 39 м. 19 с.
Общий поток : 1 793 Кбит/сек
Дата кодирования : UTC 2020-04-21 10:39:24
Программа кодирования : mkvmerge v7.8.0 (''River Man'') 32bit built on Apr 3 2015 12:11:22
Библиотека кодирования : libebml v1.3.1 + libmatroska v1.4.2

Видео
Идентификатор : 1
Формат : AVC
Формат/Информация : Advanced Video Codec
Профиль формата :
Настройки формата : CABAC / 9 Ref Frames
Параметр CABAC формата : Да
Параметр RefFrames формата : 9 кадров
Идентификатор кодека : V_MPEG4/ISO/AVC
Продолжительность : 39 м. 19 с.
Битрейт : 1 600 Кбит/сек
Ширина : 1 024 пикселя
Высота : 576 пикселей
Соотношение сторон : 16:9
Режим частоты кадров : Постоянный
Частота кадров : 25,000 кадров/сек
Цветовое пространство : YUV
Субдискретизация насыщенности : 4:2:0
Битовая глубина : 8 бит
Тип развёртки : Прогрессивная
Бит/(Пиксели*Кадры) : 0.109
Размер потока : 440 Мбайт (87%)
Библиотека кодирования : x264 core 146 r2538 121396c
Настройки программы : cabac=1 / ref=9 / deblock=1:-2:-1 / analyse=0x3:0x133 / me=umh / subme=9 / psy=1 / psy_rd=1.00:0.15 / mixed_ref=1 / me_range=32 / chroma_me=1 / trellis=2 / 8x8dct=1 / cqm=0 / deadzone=21,11 / fast_pskip=0 / chroma_qp_offset=-3 / threads=18 / lookahead_threads=3 / sliced_threads=0 / nr=0 / decimate=1 / interlaced=0 / bluray_compat=0 / constrained_intra=0 / bframes=9 / b_pyramid=2 / b_adapt=2 / b_bias=0 / direct=1 / weightb=1 / open_gop=0 / weightp=2 / keyint=250 / keyint_min=25 / scenecut=40 / intra_refresh=0 / rc=2pass / mbtree=0 / bitrate=1600 / ratetol=1.0 / qcomp=0.60 / qpmin=0 / qpmax=69 / qpstep=4 / cplxblur=20.0 / qblur=0.5 / ip_ratio=1.40 / pb_ratio=1.30 / aq=2:1.00
Default : Да
Forced : Нет
Цветовой диапазон : Limited
Основные цвета : BT.709
Характеристики трансфера : BT.709
Коэффициенты матрицы : BT.709
Duration_Source : General_Duration

Аудио
Идентификатор : 2
Формат : AC-3
Формат/Информация : Audio Coding 3
Коммерческое название : Dolby Digital
Идентификатор кодека : A_AC3
Продолжительность : 39 м. 19 с.
Вид битрейта : Постоянный
Битрейт : 192 Кбит/сек
Каналы : 2 канала
Channel layout : L R
Частота : 48,0 КГц
Частота кадров : 31,250 кадров/сек (1536 SPF)
Метод сжатия : С потерями
Размер потока : 54,0 Мбайт (11%)
Service kind : Complete Main
Default : Да
Forced : Нет
Duration_Source : General_Duration









   Похожие торренты   Торрент   Размер 
В этой теме нет новых непрочитанных сообщений. Свои (2 сезон 1-28 серии из 46) (Александр Колесник, Михаил Колпахчиев) [2019, детектив, WEBRip-AVC]

0 | 0

14.26 ГБ

В этой теме нет новых непрочитанных сообщений. Свои (2 сезон 1-9 серии из 46) (Александр Колесник, Михаил Колпахчиев) [2019, детектив, WEBRip-AVC]

0 | 0

4.68 ГБ

В этой теме нет новых непрочитанных сообщений. Свои (2 сезон 1-20 серии из 46) (Александр Колесник, Михаил Колпахчиев) [2019, детектив, WEBRip-AVC]

5 | 5

10.24 ГБ

В этой теме нет новых непрочитанных сообщений. Свои (2 сезон 1-10 серии из 46) (Александр Колесник, Михаил Колпахчиев) [2019, детектив, WEBRip-AVC]

10 | 2

5.21 ГБ

В этой теме нет новых непрочитанных сообщений. Свои (2 сезон 1-17 серии из 46) (Александр Колесник, Михаил Колпахчиев) [2019, детектив, WEBRip-AVC]

0 | 0

8.75 ГБ

В этой теме нет новых непрочитанных сообщений. Свои (2 сезон 1-25 серии из 46) (Александр Колесник, Михаил Колпахчиев) [2019, детектив, WEBRip-AVC]

16 | 4

12.76 ГБ

В этой теме нет новых непрочитанных сообщений. Свои (2 сезон 1-3 серии из 46) (Александр Колесник, Михаил Колпахчиев) [2019, детектив, WEBRip-AVC]

0 | 0

1.53 ГБ




Вы не можете начинать темы
Вы не можете отвечать на сообщения
Вы не можете редактировать свои сообщения
Вы не можете удалять свои сообщения
Вы не можете добавлять вложения

Перейти:  
Контактная информация: rstracker[пёсик]yandex.ru
 Вход
ppkBB3cker v.2 © 2008-2014 @ PPK
[ Time : 0.019s | 16 Queries | GZIP : Off ]

cron