img image001 image001 image001 image001 image001 image001 image001 image001 image001 image001 image001 image001 image001 image001 image001

Planets Sun Sun Sun
Статистика раздачи
Автор: PriZraK | Размер: 12.56 ГБ | Добавлен: 24 мар 2022
Раздают: 0    Качают: 0
Скачать торрент
Скачать торрент
Описание торрента

СообщениеДобавлено: 24 мар 2022 

Информация о сериале
Название: Варвары
Оригинальное название: Barbaren / Barbarians
Год выхода: 2020
Жанр: Боевик, история, драма
Режиссёр: Барбара Эдер, Стивен Ст. Леджер
В ролях: Гаэтано Ароника, Бенце Ференци, Жанна Гурсо, Тибор Милош Криско, Джереми Миликер, Лоуренс Рупп, Давид Шюттер, Бернхард Шюц, Ева Верена Мюллер, Сергей Онопко и др.

Описание:
Сериал расскажет о событиях 9 года н. э., когда во время битвы в Тевтобургском Лесу германские племена попытались остановить продвижение Римской Империи на север. В центре сюжета — история трёх героев, чьи судьбы оказались тесно переплетены.



Страна: Германия
Студия: Netflix
Продолжительность: ~00:50:00
Перевод: Профессиональный (многоголосый закадровый) | LostFilm

Файл
Кодек: AVC
Качество: WEB-DL 1080p
Видео: 1920x1080 (16:9), 24 fps, ~5000 Kbps
Аудио №1: AC3, 48,0 kHz, 6 ch, 640 kbps | LostFilm
Аудио №2: AC3, 48,0 kHz, 6 ch, 640 kbps | Original
Субтитры: Русские (Forced, Full |«Netflix»|, немецкие (Forced, SDH), английские (Full, SDH)

Реклама: Отсутствует | Чистый видеоряд (без заставки и логотипа)!
Исходник: Barbarians.2020.S01.1080p.NF.WEB-DL.DD5.1.x264-EniaHD

01. Wolf and Eagle / Волк и орёл
02. Vengeance / Мщение
03. On the Edge / На грани
04. A New Reik / Новый вождь
05. Treason / Измена
06. The Battle / Битва
Аудио №1 получено наложением выделенных голосов от «LostFilm» на центр оригинального EAC3
Работа со звуком: itunestv@eniahd
Complete name : D:ShowsBarbaren_(s01)_LostFilm_1080pBarbarians.2020.S01E01.Wolf.and.Eagle.1080p.NF.WEB-DL.DD5.1.x264-EniaHD.mkv
Format : Matroska
Format version : Version 2
File size : 2.43 GiB
Duration : 51 min 42 s
Overall bit rate mode : Variable
Overall bit rate : 6 716 kb/s
Encoded date : UTC 2021-01-27 15:47:38
Writing application : mkvmerge v4.9.1 ('Ich will') сборка от Jul 11 2011 23:53:15
Writing library : libebml v1.2.1 + libmatroska v1.1.1

Video
ID : 1
Format : AVC
Format/Info : Advanced Video Codec
Format profile : Main@L4
Format settings : CABAC / 3 Ref Frames
Format settings, CABAC : Yes
Format settings, Reference : 3 frames
Codec ID : V_MPEG4/ISO/AVC
Duration : 51 min 42 s
Bit rate mode : Variable
Bit rate : 5 302 kb/s
Nominal bit rate : 5 800 kb/s
Maximum bit rate : 8 700 kb/s
Width : 1 920 pixels
Height : 1 080 pixels
Display aspect ratio : 16:9
Frame rate mode : Constant
Frame rate : 24.000 FPS
Color space : YUV
Chroma subsampling : 4:2:0
Bit depth : 8 bits
Scan type : Progressive
Bits/(Pixel*Frame) : 0.107
Stream size : 1.92 GiB (79%)
Title : Release by EniaHD
Writing library : x264 core 148 r2722 1b0121b
Encoding settings : cabac=1 / ref=3 / deblock=1:0:0 / analyse=0x1:0x111 / me=umh / subme=10 / psy=1 / psy_rd=1.00:0.00 / mixed_ref=1 / me_range=24 / chroma_me=1 / trellis=2 / 8x8dct=0 / cqm=0 / deadzone=21,11 / fast_pskip=1 / chroma_qp_offset=-2 / threads=8 / lookahead_threads=1 / sliced_threads=0 / nr=0 / decimate=1 / interlaced=0 / bluray_compat=0 / stitchable=1 / constrained_intra=0 / bframes=2 / b_pyramid=0 / b_adapt=2 / b_bias=0 / direct=3 / weightb=1 / open_gop=0 / weightp=2 / keyint=250 / keyint_min=24 / scenecut=0 / intra_refresh=0 / rc_lookahead=48 / rc=2pass / mbtree=1 / bitrate=5800 / ratetol=1.0 / qcomp=0.50 / qpmin=6 / qpmax=51 / qpstep=4 / cplxblur=20.0 / qblur=0.5 / vbv_maxrate=8700 / vbv_bufsize=11600 / nal_hrd=vbr / filler=0 / ip_ratio=1.40 / aq=1:1.00
Default : Yes
Forced : No

Audio #1
ID : 2
Format : AC-3
Format/Info : Audio Coding 3
Commercial name : Dolby Digital
Codec ID : A_AC3
Duration : 51 min 42 s
Bit rate mode : Constant
Bit rate : 640 kb/s
Channel(s) : 6 channels
Channel layout : L R C LFE Ls Rs
Sampling rate : 48.0 kHz
Frame rate : 31.250 FPS (1536 SPF)
Compression mode : Lossy
Stream size : 237 MiB (10%)
Title : LostFilm
Language : Russian
Service kind : Complete Main
Default : Yes
Forced : No

Audio #2
ID : 3
Format : AC-3
Format/Info : Audio Coding 3
Commercial name : Dolby Digital
Codec ID : A_AC3
Duration : 51 min 42 s
Bit rate mode : Constant
Bit rate : 640 kb/s
Channel(s) : 6 channels
Channel layout : L R C LFE Ls Rs
Sampling rate : 48.0 kHz
Frame rate : 31.250 FPS (1536 SPF)
Compression mode : Lossy
Stream size : 237 MiB (10%)
Language : German
Service kind : Complete Main
Default : No
Forced : No

Text #1
ID : 4
Format : UTF-8
Codec ID : S_TEXT/UTF8
Codec ID/Info : UTF-8 Plain Text
Title : Forced |LF|
Language : Russian
Default : Yes
Forced : No

Text #2
ID : 5
Format : UTF-8
Codec ID : S_TEXT/UTF8
Codec ID/Info : UTF-8 Plain Text
Title : Full |NF|
Language : Russian
Default : No
Forced : No

Text #3
ID : 6
Format : UTF-8
Codec ID : S_TEXT/UTF8
Codec ID/Info : UTF-8 Plain Text
Title : Forced
Language : German
Default : No
Forced : No

Text #4
ID : 7
Format : UTF-8
Codec ID : S_TEXT/UTF8
Codec ID/Info : UTF-8 Plain Text
Title : SDH
Language : German
Default : No
Forced : No

Text #5
ID : 8
Format : UTF-8
Codec ID : S_TEXT/UTF8
Codec ID/Info : UTF-8 Plain Text
Title : Full
Language : English
Default : No
Forced : No

Text #6
ID : 9
Format : UTF-8
Codec ID : S_TEXT/UTF8
Codec ID/Info : UTF-8 Plain Text
Title : SDH
Language : English
Default : No
Forced : No

   Похожие торренты   Торрент   Размер 
В этой теме нет новых непрочитанных сообщений. Варвары / Barbaren / Barbarians [S01] (2020) WEB-DL 1080p | Невафильм

0 | 0

12.59 ГБ

В этой теме нет новых непрочитанных сообщений. Варвары / Barbaren / Barbarians [S01] (2020) WEB-DLRip-AVC | Невафильм

2 | 0

4.26 ГБ

В этой теме нет новых непрочитанных сообщений. Варвары / The Barbarians (1987) BDRip-HEVC 1080p от RIPS CLUB | A , L1

0 | 0

9.42 ГБ

В этой теме нет новых непрочитанных сообщений. Варвары / The Barbarians (Руджеро Деодато) [1987, фэнтези, приключения, HDRip] VO / Фантастика

2 | 0

1.46 ГБ

В этой теме нет новых непрочитанных сообщений. Варвары / The Barbarians (Руджеро Деодато) [1987, Фэнтези, приключения, BDRip-AVC] VO / Фильмы HDRip

2 | 0

2.57 ГБ

В этой теме нет новых непрочитанных сообщений. Противостояние / The Stand [S01] (2020) WEB-DL 1080p | LostFilm

0 | 0

25.86 ГБ

В этой теме нет новых непрочитанных сообщений. Бортпроводница / The Flight Attendant [S01] (2020) WEB-DL 1080p | LostFilm

0 | 0

21.29 ГБ




Вы не можете начинать темы
Вы не можете отвечать на сообщения
Вы не можете редактировать свои сообщения
Вы не можете удалять свои сообщения
Вы не можете добавлять вложения

Перейти:  
Контактная информация: rstracker[пёсик]yandex.ru
 Вход
ppkBB3cker v.2 © 2008-2014 @ PPK
[ Time : 0.027s | 19 Queries | GZIP : Off ]

cron