img image001 image001 image001 image001 image001 image001 image001 image001 image001 image001 image001 image001 image001 image001 image001

Planets Sun Sun Sun
Статистика раздачи
Автор: PriZraK | Размер: 4.92 ГБ | Добавлен: 24 мар 2022
Раздают: 4    Качают: 0
Скачать торрент
Скачать торрент
Описание торрента

СообщениеДобавлено: 24 мар 2022 

Информация о фильме
Оригинальное название: Папик
Год выпуска: 2019
Жанр: Комедия
Режиссер: Андрей Яковлев
В ролях: Станислав Боклан, Дарья Петрожицкая, Вячеслав Гиндин, Эльдар Кабиров, Сергей Сипливый, Михаил Кукуюк, Олеся Жураковская, Максим Максимюк, Екатерина Кистень, Вера Кобзарь, Ярослав Чорненький, Борис Книженко, Владимир Цывинский, Алексей Череватенко, Анастасия Чепелюк, Олеся Гаевая, Дарья Рыбак, Евгения Мякенькая, Марина Дьяконенко, Елена Лаврова (II), Андрей Кронглевский, Тамара Антропова, Аурика Дзигора, Олег Шушпанников, Светлана Бевз, Наталья Кленина, Сергей Деньга, Александр Безрук, Иван Шаповал, Сталина Лагошняк, Леся Самаева, Алика Бурым, Валерий Шептекита, Игорь Тильтиков, Егор Пчёлкин, Мария Кочур, Татьяна Лавская, Андрей Панас, Олег Власов (II)

О фильме:
1-й Сезон: По сюжету, пенсионер, некогда популярный актер кино, доведенный до отчаяния, решает свести счеты с жизнью. Но напоследок хочет привести себя в порядок и идет в модный барбершоп. Там ему, конечно же, наливают, после чего его тянет на последние в своей жизни приключения. Но неожиданно в одном из клубов главный герой знакомится с девушкой, охотницей на "папиков", которая принимает его за успешного миллионера...
2-й Сезон: В продолжении истории актёр на пенсии Александр Меркулов снова пытается начать новую жизнь. Только теперь не со смены имиджа, а с выхода из тюрьмы. Ведь дольче вита в чужом особняке с гламурной охотницей за «папиками» Лизой обернулась заключением в камере. Тем временем Лиза после удачного выступления в телешоу попадает в поп-группу и уезжает в первое турне. Хотя главных героев и развела судьба, они продолжают спасать друг друга в самых сложных ситуациях.



Страна: Украина
Студия: Студия Квартал 95
Продолжительность: 34 x ~ 00:30:00
Перевод: Не требуется

Файл
Формат: MP4
Качество: WEB-DLRip-AVC
Видео: MPEG-4 AVC (x264), 640x320, ~500 kbps, 25.000 fps
Аудио: AAC LC, 48.0 KHz, 2 ch, 128 Kbps
Субтитры: Нет

Семпл


Complete name : F:КИНОPapik.S01.2019.AVC.WEB-DLRip.KPK.GFPapik.s01e02.2019.AVC.WEB-DLRip.KPK.GF.mp4
Format : MPEG-4
Codec ID : M4V (isom/iso2/avc1)
File size : 139 MiB
Duration : 30 min 43 s
Overall bit rate mode : Variable
Overall bit rate : 634 kb/s
Writing application : Lavf53.19.0

Video
ID : 1
Format : AVC
Format/Info : Advanced Video Codec
Format profile : High@L4.1
Format settings, CABAC : Yes
Format settings, RefFrames : 8 frames
Codec ID : avc1
Codec ID/Info : Advanced Video Coding
Duration : 30 min 43 s
Bit rate : 500 kb/s
Width : 640 pixels
Height : 360 pixels
Display aspect ratio : 16:9
Frame rate mode : Constant
Frame rate : 25.000 FPS
Color space : YUV
Chroma subsampling : 4:2:0
Bit depth : 8 bits
Scan type : Progressive
Bits/(Pixel*Frame) : 0.087
Stream size : 110 MiB (79%)
Writing library : x264 core 148 r2638 7599210
Encoding settings : cabac=1 / ref=8 / deblock=1:-1:-1 / analyse=0x3:0x133 / me=umh / subme=10 / psy=1 / psy_rd=1.00:0.00 / mixed_ref=1 / me_range=24 / chroma_me=1 / trellis=2 / 8x8dct=1 / cqm=0 / deadzone=21,11 / fast_pskip=1 / chroma_qp_offset=-2 / threads=6 / lookahead_threads=1 / sliced_threads=0 / nr=0 / decimate=1 / interlaced=0 / bluray_compat=0 / constrained_intra=0 / bframes=8 / b_pyramid=2 / b_adapt=2 / b_bias=0 / direct=3 / weightb=1 / open_gop=0 / weightp=2 / keyint=250 / keyint_min=126 / scenecut=40 / intra_refresh=0 / rc_lookahead=40 / rc=2pass / mbtree=1 / bitrate=500 / ratetol=1.0 / qcomp=0.60 / qpmin=0 / qpmax=69 / qpstep=4 / cplxblur=20.0 / qblur=0.5 / ip_ratio=1.40 / aq=1:1.00
Menus : 3

Audio
ID : 2
Format : AAC
Format/Info : Advanced Audio Codec
Format profile : LC
Codec ID : 40
Duration : 30 min 43 s
Bit rate mode : Variable
Bit rate : 128 kb/s
Channel(s) : 2 channels
Channel positions : Front: L R
Sampling rate : 48.0 kHz
Frame rate : 46.875 FPS (1024 SPF)
Compression mode : Lossy
Stream size : 28.1 MiB (20%)
Default : Yes
Alternate group : 1
Menus : 3

Релиз от:

   Похожие торренты   Торрент   Размер 
В этой теме нет новых непрочитанных сообщений. Папик [S01-S02 + 01-02 из 02 Взгляд изнутри] (2019-2021) WEB-DLRip от Files-x

18 | 64

14.01 ГБ

В этой теме нет новых непрочитанных сообщений. Папик [S02] (2021) WEB-DLRip от Generalfilm | КПК

0 | 0

2.14 ГБ

В этой теме нет новых непрочитанных сообщений. Папик [S02] (2021) WEB-DLRip

0 | 0

7.04 ГБ

В этой теме нет новых непрочитанных сообщений. Блудный сын / Prodigal Son [S01-02] (2019-2021) WEB-DLRip от Generalfilm | КПК | LostFilm

0 | 0

5.38 ГБ

В этой теме нет новых непрочитанных сообщений. Видеть / See [S01-02] (2019-2021) WEB-DLRip-AVC | КПК | NewStudio

0 | 0

4.23 ГБ

В этой теме нет новых непрочитанных сообщений. Папик [S02] (2021) WEB-DL 1080p

0 | 0

16.9 ГБ

В этой теме нет новых непрочитанных сообщений. Папик [S02] (2021) WEB-DL 720p

0 | 0

14.87 ГБ




Вы не можете начинать темы
Вы не можете отвечать на сообщения
Вы не можете редактировать свои сообщения
Вы не можете удалять свои сообщения
Вы не можете добавлять вложения

Перейти:  
Контактная информация: rstracker[пёсик]yandex.ru
 Вход
ppkBB3cker v.2 © 2008-2014 @ PPK
[ Time : 0.023s | 18 Queries | GZIP : Off ]

cron