img image001 image001 image001 image001 image001 image001 image001 image001 image001 image001 image001 image001 image001 image001 image001

Planets Sun Sun Sun
Статистика раздачи
Автор: PriZraK | Размер: 12.59 ГБ | Добавлен: 24 мар 2022
Раздают: 0    Качают: 0
Скачать торрент
Скачать торрент
Описание торрента

СообщениеДобавлено: 24 мар 2022 

Информация о фильме
Название: Варвары
Оригинальное название: Barbaren / Barbarians
Год выхода: 2020
Жанр: боевик, история, драма
Режиссёр: Барбара Эдер, Стивен Ст. Леджер
В ролях: Гаэтано Ароника, Бенси Ференси, Жанна Гурсо, Тибор Милош Криско, Джереми Миликер, Лоуренс Рупп, Давид Шюттер, Бернхард Шюц, Ева Верена Мюллер, Сергей Онопко

О фильме: «Варвары» — новая историческая драма от Netflix, повествующая о легендарной битве в Тевтобургском лесу между германскими племенами и воинами Римской империи. Создатели шоу обещают бережное обращение с историческими фактами, однако сериал не будет лишен и новизны взгляда на далекие события, произошедшие во времена военной кампании римлян на землях германцев. В этом шоу зритель будет смотреть на происходящее глазами германских воинов, сражающихся за свою свободу, чего прежде практически не случалось в истории ТВ и кинематографа, обычно сфокусированных на изображении Римской империи. «Варвары» стали одним из первых проектов германского подразделения компании Gaumont, которая занималась съемками сериала. Продюсер шоу и глава компании Сабина Де Мардт считает, что для столь молодой компании (Gaumont Germany была основана в 2018 году) этот сюжет, предложенный шоураннерами Яном Мартином Шарфом и Арне Нолтинг, является амбициозным стартом. Съемки проекта, проходившие в Нидерландах, велись под началом режиссеров Барбары Эдер и Стива Сэйнта Лигера («Викинги»).

Арминий (Лоуренс Рупп) — «варвар», выходец из германского племени херусков, отданный родным отцом Римской империи в качестве залога за поддержание так называемого мира между римлянами и германцами на оккупированной земле. Воспитанный Империей, Арминий становится римским офицером и бравым воином, однако когда наместник этих земель Публий Квинтилий Вар (Гаэтано Ароника) собирается выступить против германцев, ему приходится сделать сложный выбор между преданностью Римской империи и верностью своему родному племени...



Страна: Германия
Студия: NetFlix, Gaumont
Продолжительность: ~00:50:00 серия
Перевод: Профессиональный (дублированный) Невафильм по заказу Netflix

Файл
Качество: WEB-DL 1080p
Формат: Matroska
Видео: 1920x1080 at 24.000 fps, x264, ~4000-5800 kbps avg
Аудио#1: Russian: 48 kHz, E-AC3, 3/2 (L,C,R,l,r) + LFE ch, ~640 kbps avg |Дубляж, Невафильм по заказу Netflix|
Аудио#2: German: 48 kHz, E-AC3, 3/2 (L,C,R,l,r) + LFE ch, ~640 kbps avg
Субтитры: Russian (Forced, Full), English (SDH)

***Примечание: Без рекламы
***Релиз: TeamHD

01. Волк и орёл / Wolf and Eagle
02. Отмщение / Vengeance
03. На краю / On the Edge
04. Новый Реик / A New Reik
05. Измена / Treason
06. Битва / The Battle
Complete name : Barbarians.S01E01.1080p.NF.WEB-DL.DDP5.1.x264-TeamHD.mkv
Format : Matroska
Format version : Version 4
File size : 2.43 GiB
Duration : 51 min 48 s
Overall bit rate mode : Variable
Overall bit rate : 6 707 kb/s
Movie name : Release for TeamHD
Encoded date : UTC 2021-10-29 09:36:53
Writing application : mkvmerge v44.0.0 ('Domino') 64-bit
Writing library : libebml v1.3.10 + libmatroska v1.5.2

Video
ID : 1
Format : AVC
Format/Info : Advanced Video Codec
Format profile : Main@L4
Format settings : CABAC / 3 Ref Frames
Format settings, CABAC : Yes
Format settings, Reference frames : 3 frames
Codec ID : V_MPEG4/ISO/AVC
Duration : 51 min 48 s
Bit rate mode : Variable
Bit rate : 5 425 kb/s
Nominal bit rate : 5 800 kb/s
Maximum bit rate : 8 700 kb/s
Width : 1 920 pixels
Height : 1 080 pixels
Display aspect ratio : 16:9
Frame rate mode : Constant
Frame rate : 24.000 FPS
Color space : YUV
Chroma subsampling : 4:2:0
Bit depth : 8 bits
Scan type : Progressive
Bits/(Pixel*Frame) : 0.109
Stream size : 1.96 GiB (81%)
Writing library : x264 core 148 r2722 1b0121b
Encoding settings : cabac=1 / ref=3 / deblock=1:0:0 / analyse=0x1:0x111 / me=umh / subme=10 / psy=1 / psy_rd=1.00:0.00 / mixed_ref=1 / me_range=24 / chroma_me=1 / trellis=2 / 8x8dct=0 / cqm=0 / deadzone=21,11 / fast_pskip=1 / chroma_qp_offset=-2 / threads=6 / lookahead_threads=1 / sliced_threads=0 / nr=0 / decimate=1 / interlaced=0 / bluray_compat=0 / stitchable=1 / constrained_intra=0 / bframes=2 / b_pyramid=0 / b_adapt=2 / b_bias=0 / direct=3 / weightb=1 / open_gop=0 / weightp=2 / keyint=250 / keyint_min=24 / scenecut=0 / intra_refresh=0 / rc_lookahead=48 / rc=2pass / mbtree=1 / bitrate=5800 / ratetol=1.0 / qcomp=0.50 / qpmin=6 / qpmax=51 / qpstep=4 / cplxblur=20.0 / qblur=0.5 / vbv_maxrate=8700 / vbv_bufsize=11600 / nal_hrd=vbr / filler=0 / ip_ratio=1.40 / aq=1:1.00
Default : Yes
Forced : No

Audio #1
ID : 2
Format : E-AC-3
Format/Info : Enhanced AC-3
Commercial name : Dolby Digital Plus
Codec ID : A_EAC3
Duration : 51 min 48 s
Bit rate mode : Constant
Bit rate : 640 kb/s
Channel(s) : 6 channels
Channel layout : L R C LFE Ls Rs
Sampling rate : 48.0 kHz
Frame rate : 31.250 FPS (1536 SPF)
Compression mode : Lossy
Stream size : 237 MiB (10%)
Title : Russian
Language : Russian
Service kind : Complete Main
Default : Yes
Forced : No

Audio #2
ID : 3
Format : E-AC-3
Format/Info : Enhanced AC-3
Commercial name : Dolby Digital Plus
Codec ID : A_EAC3
Duration : 51 min 48 s
Bit rate mode : Constant
Bit rate : 640 kb/s
Channel(s) : 6 channels
Channel layout : L R C LFE Ls Rs
Sampling rate : 48.0 kHz
Frame rate : 31.250 FPS (1536 SPF)
Compression mode : Lossy
Stream size : 237 MiB (10%)
Title : German
Language : German
Service kind : Complete Main
Default : No
Forced : No

Text #1
ID : 4
Format : UTF-8
Codec ID : S_TEXT/UTF8
Codec ID/Info : UTF-8 Plain Text
Duration : 50 min 56 s
Bit rate : 45 b/s
Count of elements : 410
Stream size : 16.8 KiB (0%)
Title : Russian
Language : Russian
Default : No
Forced : No

Text #2
ID : 5
Format : UTF-8
Codec ID : S_TEXT/UTF8
Codec ID/Info : UTF-8 Plain Text
Duration : 50 min 55 s
Bit rate : 27 b/s
Count of elements : 397
Stream size : 10.1 KiB (0%)
Title : English
Language : English
Default : No
Forced : No
Когда раздача ведётся путём добавления новых серий, при каждом добавлении создётся новый торрент. Чтобы начать докачку новой серии, пользователям необходимо сделать следующее:
(1) остановить скачивание,
(2) удалить старый торрент у себя из клиента (старые серии удалять не надо),
(3) скачать новый торрент и запустить его у себя в клиенте вместо старого, при этом указать клиенту путь в старую папку, куда и должно происходить скачивание новых серий.
Ваш клиент при этом должен произвести хеширование (проверку) старой папки (если не производит сам - помогите ему сделать это), и будет докачивать только те серии, которых у вас ещё нет. Старые серии при этом не удаляются, а продолжают раздаваться!
Eсли вы уже удалили старые серии, то предотвратить повторную закачку старых серий можно, отжав галочку в соответсвующих местах при запуске нового торрента. По возможности, желательно не удалять старые серии как можно дольше, чтобы релизер не столько продолжал раздавать старые серии, а смог сконцентрироваться на новых.

   Похожие торренты   Торрент   Размер 
В этой теме нет новых непрочитанных сообщений. Варвары / Barbaren / Barbarians [S01] (2020) WEB-DLRip-AVC | Невафильм

2 | 0

4.26 ГБ

В этой теме нет новых непрочитанных сообщений. Варвары / Barbaren / Barbarians [S01] (2020) WEB-DL 1080p | LostFilm

0 | 0

12.56 ГБ

В этой теме нет новых непрочитанных сообщений. Варвары / The Barbarians (1987) BDRip-HEVC 1080p от RIPS CLUB | A , L1

0 | 0

9.42 ГБ

В этой теме нет новых непрочитанных сообщений. Варвары / The Barbarians (Руджеро Деодато) [1987, фэнтези, приключения, HDRip] VO / Фантастика

2 | 0

1.46 ГБ

В этой теме нет новых непрочитанных сообщений. Варвары / The Barbarians (Руджеро Деодато) [1987, Фэнтези, приключения, BDRip-AVC] VO / Фильмы HDRip

2 | 0

2.57 ГБ

В этой теме нет новых непрочитанных сообщений. Джули и призраки / Julie and the Phantoms [S01] (2020) WEB-DL 1080p | Невафильм

0 | 0

13.29 ГБ

В этой теме нет новых непрочитанных сообщений. Дом совы / Совиный дом / The Owl House [S01] (2020) WEB-DL 1080p | Невафильм | Локализованный видеоряд

0 | 0

14.01 ГБ




Вы не можете начинать темы
Вы не можете отвечать на сообщения
Вы не можете редактировать свои сообщения
Вы не можете удалять свои сообщения
Вы не можете добавлять вложения

Перейти:  
Контактная информация: rstracker[пёсик]yandex.ru
 Вход
ppkBB3cker v.2 © 2008-2014 @ PPK
[ Time : 0.033s | 20 Queries | GZIP : Off ]

cron