img image001 image001 image001 image001 image001 image001 image001 image001 image001 image001 image001 image001 image001 image001 image001

Planets Sun Sun Sun
Статистика раздачи
Автор: Снежана | Размер: 7.97 ГБ | Добавлен: 25 июл 2013
Раздают: 2    Качают: 1
Скачать торрент
Скачать торрент
Описание торрента

СообщениеДобавлено: 25 июл 2013 

#77

Описание:
Дилан Хант – капитан космического корабля «Andromeda Ascendant» («Восходящая Андромеда»). «Андромеда» - военный корабль воздушного флота Содружества Систем. Содружество Систем – это монархическое государство, территория которого простирается на несколько галактик. Дилан Хант и его команда были заморожены во времена расцвета «Содружества Систем». Через несколько веков они очнулись от криогенного сна и обнаружили, что Содружество Систем прекратило существование. Все системы, входившие когда-то в мощное Содружество, пришли в упадок, постепенно деградировали и дошли до уровня варварства. Хант видит своей задачей восстановить былое величие и порядок Содружества систем. «Андромеда» – живой корабль, он может общаться с капитаном и членами экипажа в образе прекрасной девушки. «Андромеда», капитан Хант и его команда отправляются в долгое космическое путешествие, чтобы навести порядок во вселенной.
Страна: США, Канада;

В ролях: Кевин Сорбо, Лиза Райдер, Лекса Дойг, Гордон Майкл Вулветт, Лаура Бертрам, Кейт Хэмилтон Кобб, Стив Вачич, Брент Стейт, Брэнди Лэдфорд и др;

Режиссер: Джорджи Монтези, Аллан Истмэн, Ричард Флауер, Маэл Роденбери;

Продолжительность серии: 60 минут;

Год выпуска: 2000 - 2005;
Релиз: многоголосный/любительский

Код:
[b]Технические данные: [/b]
      Format : AVI
      Format/Info : Audio Video Interleave
      File size : 370 MB
      Duration : 41mn 10s
      Overall bit rate : 1 258 Kbps
      Writing application : Nandub v1.0rc2
      Writing library : Nandub build 1852/release
   Video
      Format : MPEG-4 Visual
      Format profile : Streaming Video@L1
      Format settings, BVOP : Yes
      Format settings, QPel : Yes
      Format settings, GMC : No warppoints
      Format settings, Matrix : Default
      Muxing mode : Packed bitstream
      Codec ID : XVID
      Codec ID/Hint : XviD
      Duration : 41mn 10s
      Bit rate : 1 053 Kbps
      Width : 640 pixels
      Height : 352 pixels
      Display aspect ratio : 16/9
      Frame rate : 25.000 fps
      Resolution : 24 bits
      Colorimetry : 4:2:0
      Scan type : Progressive
      Bits/(Pixel*Frame) : 0.187
      Stream size : 310 MiB (84%)
      Writing library : XviD 1.0.3 (UTC 2004-12-20)
   Audio
      Format : MPEG Audio
      Format version : Version 1
      Format profile : Layer 3
      Codec ID : 55
      Codec ID/Hint : MP3
      Duration : 41mn 10s
      Bit rate mode : Constant
      Bit rate : 192 Kbps
      Channel(s) : 2 channels
      Sampling rate : 48.0 KHz
      Resolution : 16 bits
      Stream size : 56.5 MiB (15%)
      Alignment : Aligned on interleaves
      Interleave, duration : 24 ms (0.60 video frame)
      Interleave, preload duration : 480 ms


сэмпл



   Похожие торренты   Торрент   Размер 
В этой теме нет новых непрочитанных сообщений. Андромеда I / Andromeda I (2000) DVDRip

1 | 4

8.39 ГБ

В этой теме нет новых непрочитанных сообщений. Андромеда IV / Andromeda IV (2000) DVDRip

2 | 16

8.4 ГБ

В этой теме нет новых непрочитанных сообщений. Андромеда / Andromeda [S01] (2000) DVDRip-AVC by reliant

3 | 13

17.1 ГБ

В этой теме нет новых непрочитанных сообщений. Андромеда / Andromeda [S01-05] (2000 - 2005) DVDRip | СТС

61 | 49

59.68 ГБ

В этой теме нет новых непрочитанных сообщений. Андромеда / Andromeda [S01] (2000-2001) DVDRip от Generalfilm | КПК

26 | 16

4.16 ГБ

В этой теме нет новых непрочитанных сообщений. Штамм Андромеда / Вирус Андромеда / The Andromeda Strain (2008) DVDRip-AVC

45 | 8

2.82 ГБ

В этой теме нет новых непрочитанных сообщений. Вирус Андромеда / Штамм "Андромеда" / The Andromeda Strain (2008) HDTVRip от R. G. Jolly Roger

87 | 7

2.9 ГБ




Вы не можете начинать темы
Вы не можете отвечать на сообщения
Вы не можете редактировать свои сообщения
Вы не можете удалять свои сообщения
Вы не можете добавлять вложения

Перейти:  
Для Мосгорсуда, Роскомнадзора и рекламодателей: mosgorsud-torrent[собачка]yandex.ru
 Вход
ppkBB3cker v.2 © 2008-2014 @ PPK
[ Time : 0.051s | 15 Queries | GZIP : Off ]

cron