img image001 image001 image001 image001 image001 image001 image001 image001 image001 image001 image001 image001 image001 image001 image001

Planets Sun Sun Sun
Статистика раздачи
Автор: Снежана | Размер: 7.86 ГБ | Добавлен: 25 июл 2013
Раздают: 0    Качают: 2
Скачать торрент
Скачать торрент
Описание торрента

СообщениеДобавлено: 25 июл 2013 

#77

Информация о фильме
Название: Молния
Оригинальное название: The Flash
Год выхода: 1990 - 1991
Жанр: боевик, комикс, фантастика, фэнтези
Режиссер: Марио Аццопарди, Брюс Билсон, Дэнни Билсон, Гас Триконис
В ролях: Джон Уэсли Шипп, Аманда Пэйс, Алекс Десерт, Вито Д`Амброзио, Майк Дженовезе, Ричард Белцер, Дик Миллер, Глория Рубен, Присцилла Пойнтер.

О фильме:
В случайной аварии, полицейский криминалист Бэрри Аллен получает дозу химикатов и электрический разряд. Бэрри обнаруживает, что эта авария сделала его самым быстрым человеком на Земле, который даже может обогнать скорость звука. С помощью женщины ученого Тины МакГи он учится контролировать свои силы, но когда его старшего брата Джея убивают при исполнении служебных обязанностей, Бэрри просит Тину сделать ему специальный костюм, который сможет выдержать сверх звуковые нагрузки. Он решает очистить улицы города от бандитов. Теперь его имя - Молния.


Страна: США
Студия: Warner Bros. Television, Pet Fly Productions
Продолжительность: 1:33:47 + 0:47:00 x 21
Перевод: Субтитры

Файл
Кодек: XviD 1.1.0
Качество: DVDRip
Видео: 512x384, 889 Kbps, 23.976 fps
Звук: MPEG Layer 3, 142 kbps, 2 channels, 48 kHz
Субтитры: Английские И Русские (Внешние)

Семпл

General
Complete name : The.Flash.S01E01.Pilot.avi
Format : AVI
Format/Info : Audio Video Interleave
File size : 700 MiB
Duration : 1h 33mn
Overall bit rate : 1 044 Kbps
Writing application : VirtualDubMod 1.5.4.1 (build 2178/release)
Writing library : VirtualDubMod build 2178/release

Video
ID : 0
Format : MPEG-4 Visual
Format profile : Advanced Simple@L5
Format settings, BVOP : Yes
Format settings, QPel : No
Format settings, GMC : No warppoints
Format settings, Matrix : Custom
Codec ID : XVID
Codec ID/Hint : XviD
Duration : 1h 33mn
Bit rate : 889 Kbps
Width : 512 pixels
Height : 384 pixels
Display aspect ratio : 4:3
Frame rate : 23.976 fps
Color space : YUV
Chroma subsampling : 4:2:0
Bit depth : 8 bits
Scan type : Progressive
Bits/(Pixel*Frame) : 0.189
Stream size : 596 MiB (85%)
Writing library : XviD 1.1.0 (UTC 2005-11-22)

Audio
ID : 1
Format : MPEG Audio
Format version : Version 1
Format profile : Layer 3
Mode : Joint stereo
Codec ID : 55
Codec ID/Hint : MP3
Duration : 1h 33mn
Bit rate mode : Variable
Bit rate : 142 Kbps
Nominal bit rate : 160 Kbps
Channel(s) : 2 channels
Sampling rate : 48.0 KHz
Stream size : 95.2 MiB (14%)
Alignment : Aligned on interleaves
Interleave, duration : 24 ms (0.58 video frame)
Interleave, preload duration : 470 ms
Writing library : LAME3.97b
Encoding settings : -m j -V 4 -q 2 -lowpass 17.5 --abr 160
Language : English



   Похожие торренты   Торрент   Размер 
В этой теме нет новых непрочитанных сообщений. Молния / The Flash [S01] (1990 - 1991) DVDRip

95 | 10

8.54 ГБ

В этой теме нет новых непрочитанных сообщений. Человек-молния / The Flash (1990) DVDRip

28 | 4

777.68 МБ

В этой теме нет новых непрочитанных сообщений. Человек-молния 2: Месть надувателя / The Flash 2: Revenge of The Trickster (1991) VHSRip

11 | 3

699.21 МБ

В этой теме нет новых непрочитанных сообщений. Симпсоны / The Simpsons [S02] (1990-1991) DVDRip-AVC от AEZ

105 | 25

7.45 ГБ

В этой теме нет новых непрочитанных сообщений. Сол Бьянка OVA (2 серии из 2) / Sol Bianca (1990-1991) DVDRip от KinoRay & Sheikn

116 | 9

1.35 ГБ

В этой теме нет новых непрочитанных сообщений. Чудеса на виражах / TaleSpin [01 из 65] (1990-1991) DVDRip от KINOREAKTOR (Sheikn)

0 | 2

310.59 МБ

В этой теме нет новых непрочитанных сообщений. Чудеса на виражах / TaleSpin [01-65 из 65] (1990-1991) DVDRip-AVC от Egorijj.Alien | КПК

170 | 38

7.1 ГБ




Вы не можете начинать темы
Вы не можете отвечать на сообщения
Вы не можете редактировать свои сообщения
Вы не можете удалять свои сообщения
Вы не можете добавлять вложения

Перейти:  
Для Мосгорсуда, Роскомнадзора и рекламодателей: mosgorsud-torrent[собачка]yandex.ru
 Вход
ppkBB3cker v.2 © 2008-2014 @ PPK
[ Time : 0.061s | 17 Queries | GZIP : Off ]

Торрент трекер RUTOR.IN, Не можете зайти на rutor.org? Какой новый адрес рутор? Какое зеркало рутор? Не работает rutor.org и зеркала? Тогда наш торрент специально для вас. Rutor.in неофициальное зеркало rutor. В случае если у Вас заблокирован rutor или вдруг Вы не можете на него зайти, то Вы без труда сможете скачать бесплатно и без рекламы последние новинки кино, игр, сериалов и прочего у нас, на Rutor.in. Не нужно использовать прокси, чтобы зайти на рутор, достаточно воспользоваться нашим ресурсом. Все новые фильмы, игры, сериалы, книги и музыка за 2013 и 2014 годы через торрент бесплатно. Скачивайте фильмы в хорошем качестве, игры для пк, xbox, playstation без регистрации. У нас вы найдете новые Зарубежные сериалы и Русские сериалы 2013, 2014, 2015 годов. Оставайтесь с нами, качайте любимые фильмы, игры, сериалы, книги и музыку.
cron