img image001 image001 image001 image001 image001 image001 image001 image001 image001 image001 image001 image001 image001 image001 image001 image001

Planets Sun Sun Sun
Статистика раздачи
Автор: Снежана | Размер: 7.53 ГБ | Добавлен: 25 июл 2013
Раздают: 1    Качают: 2
Скачать торрент
Скачать торрент
Описание торрента

СообщениеДобавлено: 25 июл 2013 

#77

Информация о фильме
Название: Полиция Майами: Отдел Нравов
Оригинальное название: Miami Vice
Год выхода: 1988 - 1989
Жанр: боевик, триллер, драма, криминал
Режиссер: Джон Николелла, Ричард Комптон, Дон Джонсон, Леон Ичасо, Верн Джиллам, Джим Джонстон, Дэвид Джексон, Колин Бакси, Вирджил В. Фогель, Пол Майкл Глейзер, Роб Коэн, Ян Элиасберг, Аарон Липстадт, Джеймс Куинн, Георг Стэнфорд Браун, Ли Х. Кацин, Дэвид Анспо, Абель Феррара, Майкл О`Херлихи, Марио ДиЛео, Гэбриэлль Бомонт, Пол Красны, Джордж Менделюк, Мишель Мэннинг, Русс Мейберри, Алан Маерсон
В ролях: Дон Джонсон, Филип Майкл Томас, Сандра Сантьяго, Оливия Браун, Майкл Толбот, Эдвард Джеймс Олмос, Джон Дил, Мартин Ферреро, Хулио Оскар Мечосо, Чарли Барнетт, Белинда Монтгомери, Шина Истон, Пэрррис Бакнер, Марио Эрнесто Санчез, Марк Маколей, Джо Хесс, Шэйн Ле Мар, Грегори Сьерра, Нед Эйзенберг, Энтони Короне, Альфредо Алварез Кальдерон

О фильме:
Сериал рассказывает о нелегкой работе полицейских Майами. Санни Крокетт и его напарник и одновременно близкий друг Рикардо Таббс расследуют жестокие убийства, изнасилования и ограбления. Полицейские всегда находят преступников и наркотики, защищают слабых, ездят на лучших машинах под популярную музыку и крутят романы с шикарными женщинами. Шедевр Майкла Манна, обретший культовый статус у "поколения MTV", но интересный и по сей день.


Страна: США
Студия: Michael Mann Productions, Universal TV
Продолжительность: 0:49:00 x 20 + 1:34:59
Перевод: Субтитры

Файл
Кодек: XviD 1.2.0.dev47
Качество: DVDRip
Видео: 512x384, 23.976 fps, ~904 kbps avg, 0.192 bit/pixel
Звук: 48 kHz, MPEG Layer 3, 2 ch, ~114 kbps avg
Субтитры: Английские И Русские (Внешние)

Семпл

General
Complete name : Miami.Vice.s05e21.Freefall.avi
Format : AVI
Format/Info : Audio Video Interleave
File size : 700 MiB
Duration : 1h 34mn
Overall bit rate : 1 031 Kbps
Writing application : VirtualDubMod 1.5.4.1 (build 2178/release)
Writing library : VirtualDubMod build 2178/release

Video
ID : 0
Format : MPEG-4 Visual
Format profile : Advanced Simple@L5
Format settings, BVOP : Yes
Format settings, QPel : No
Format settings, GMC : No warppoints
Format settings, Matrix : Default (H.263)
Muxing mode : Packed bitstream
Codec ID : XVID
Codec ID/Hint : XviD
Duration : 1h 34mn
Bit rate : 904 Kbps
Width : 512 pixels
Height : 384 pixels
Display aspect ratio : 4:3
Frame rate : 23.976 fps
Resolution : 8 bits
Colorimetry : 4:2:0
Scan type : Progressive
Bits/(Pixel*Frame) : 0.192
Stream size : 614 MiB (88%)
Writing library : XviD 1.2.0.dev47 (UTC 2006-11-01)

Audio
ID : 1
Format : MPEG Audio
Format version : Version 1
Format profile : Layer 3
Format_Settings_Mode : Joint stereo
Codec ID : 55
Codec ID/Hint : MP3
Duration : 1h 34mn
Bit rate mode : Variable
Bit rate : 114 Kbps
Nominal bit rate : 128 Kbps
Channel(s) : 2 channels
Sampling rate : 48.0 KHz
Stream size : 77.3 MiB (11%)
Alignment : Aligned on interleaves
Interleave, duration : 24 ms (0.58 video frame)
Interleave, preload duration : 536 ms
Writing library : LAME3.97
Encoding settings : -m j -V 4 -q 2 -lowpass 17 --abr 128
Language : English



   Похожие торренты   Торрент   Размер 
В этой теме нет новых непрочитанных сообщений. Полиция Майами: Отдел нравов [01-05 x 01-111 из 111] / Miami Vice (1984-1990) DVDRip - от NovaLan

10 | 12

66.35 ГБ

В этой теме нет новых непрочитанных сообщений. Полиция Майами: Отдел нравов / Miami Vice (2006) BDRip от HQ-ViDEO | Unrated Cut | D

63 | 30

2.18 ГБ

В этой теме нет новых непрочитанных сообщений. Полиция Майами: Отдел нравов / Miami Vice (2006) BDRip 720p от Leonardo and Scarabey | Театральная версия

138 | 51

4.35 ГБ

В этой теме нет новых непрочитанных сообщений. Полиция Майами: Отдел нравов / Miami Vice (2006) BDRip 1080p от Переулка Переводмана | Unrated Director's Edition | D, P, P2, A

1 | 0

14.42 ГБ

В этой теме нет новых непрочитанных сообщений. GTA / Grand Theft Auto: San Andreas - Полиция майами Отдел нравов (2005) PC | RePack от SmartPack

745 | 62

658.71 МБ

В этой теме нет новых непрочитанных сообщений. Полиция нравов / Vice Squad (1982) DVDRip | P2

51 | 2

1.4 ГБ

В этой теме нет новых непрочитанных сообщений. Полицейская академия 5: Место назначения – Майами Бич / Police Academy 5: Assignment: Miami Beach (1988) HDRip от Scarabey | D

98 | 15

1.45 ГБ




Вы не можете начинать темы
Вы не можете отвечать на сообщения
Вы не можете редактировать свои сообщения
Вы не можете удалять свои сообщения
Вы не можете добавлять вложения

Перейти:  
 Вход
ppkBB3cker v.2 © 2008-2014 @ PPK
[ Time : 0.043s | 19 Queries | GZIP : Off ]

cron