img image001 image001 image001 image001 image001 image001 image001 image001 image001 image001 image001 image001 image001 image001 image001

Planets Sun Sun Sun
Статистика раздачи
Автор: Снежана | Размер: 40.26 ГБ | Добавлен: 25 июл 2013
Раздают: 2    Качают: 4
Скачать торрент
Скачать торрент
Описание торрента

СообщениеДобавлено: 25 июл 2013 

#77

Год выпуска: 2010
Страна: США
Жанр: приключения, мистика, драма
Продолжительность: ~43 мин./серия
Перевод 1: полное дублирование (Студия "Пифагор")
Перевод 2: профессиональный многоголосый закадровый (Студия "Кравец" Лостфильм)
Русские субтитры: есть

Режиссёр: Стивен Уильямс, Джек Бендер, Эрик Ланьювилль, Поль А. Эдуордс, Стивен Семел

В ролях: Мэтью Фокс, Эванджилин Лили, Доминик Монаган, Гарольд Перрино-мл., Хорхе Гарсиа, Малкольм Дэвид Келли, Фредерик Ленн, Джон Диксон, Майкл Артур, Нэвин Эндрюс и др.

Описание: После того, как красавец-лайнер, совершающий авиарейс 815 из Сиднея в Лос-Анджелес, неожиданно потерпел крушение, часть пассажиров, чудом оставшаяся в живых, оказалась на пустынном острове посреди Тихого океана. В экстремальных ситуациях проявляются самые светлые и самые темные стороны людей. Лишь немногие находят в себе силы, о наличии которых ранее даже и не подозревали. Среди них - люди самых различных слоев общества: врач, бегущий от правосудия преступник, мошенник, солдат Иракской армии, служивший следователем по делам военнопленных, супружеская пара из Кореи, прикованный к инвалидному креслу человек, который чудесным образом выздоравливает, едва оказавшись на острове. Жертвы крушения пытаются вернуться домой, но постепенно начинают понимать, что приютивший их остров полон тайн и загадок. Эпизоды из прошлого и будущего героев фильма, рассказывают об их жизни до и после падения самолета. Остров предлагает своим пленникам возможность искупить свои грехи или опуститься еще ниже в своих пороках. Героям решают для себя проблемы веры, разума, предопределенности судьбы и свободы выбора. Но к чему все это ведет? В этом и кроется самая страшная тайна сериала. Остров скрывает множество тайн, среди которых – таинственное чудовище и полярные медведи, поселки, оснащенные электричеством и водопроводом и еще одна группа жителей острова, названная "Другими" и загадочный человек по имени Джейкоб. Оставшиеся в живых обнаруживают признаки тех, кто прибыл на остров до них - корабль 19-го века "Черная скала", обломки древней статуи и бункеры, принадлежащие группе научных исследователей "Инициатива Дхармы", населявших остров в недалеком прошлом. Кроме того, они обнаружили грузовое судно, которое, как им казалось, пришло, чтобы их спасти, но в конечном случае, чуть не привело их к гибели. Джеку, Кейт, Херли, Саиду и сыну Клэр, Аарону, удалось вернуться на большую землю мир. Весь мир узнал их как Шестерку с Ошаника. Но, как оказалось, их счеты с островом еще, увы, не сведены.

Доп. информация: • Качество рипа сделано "в размер". Т. е. исходя из 2-х серий на DVD-болванку.
• Русский DTS сделан войсовером на центральную дорожку оригинального DTS. Русские голоса на 1,5 db превышают английские. Уровень оригинала под войсом оставлен неизменный.
• Дубляж взят с Лицензионных ДВД (Disney). Обработка звука 32 bit. На Блю Рей была немного расширенная версия первого эпизода, поэтому дубляжа на несколько сцен не существует. На отсутствующие места был сделан дубляж с использованием голосов Лостфильма.
• По умолчанию включены дубляж и форсированные субтитры.


Изготовление рипа и подготовка релиза - CEZAR ©

Отдельная благодарность lostrator за синронизированный войс Лостфильма.




Исходник: LOST - The Complete Sixth Season - Blu-ray Discs
Качество: BDRip
Формат: MKV
Видео кодек: H.264
Аудио кодек: AC3
Видео: MPEG-4 AVC, 1280x720, 23.976 fps, ~5 Mbps avg., profile: High@L4.1

Звуковые дорожки
Русский / AC3 2.0 / 48 kHz / 192 kbps (Профессиональный дубляж) Студия "Пифагор"
Русский / DTS: 5.1 / 48 kHz / 754 kbps (Многоголосый закадровый) Студия "Кравец" Лостфильм
English / DTS Core: 5.1 / 48 kHz / 1509 kbps / 24-bit (оригинальный с исходника)
English / AC3 2.0 / 48 kHz / 192 kbps Комментарии (в 1, 7, 9 и 15 эпизодах)
Субтитры
Полные - русский (ASS), английский (ASS)
Неанглийские диалоги и надписи - русский (ASS).
Комментарии - русский, английский (в 1, 7, 9 и 15 эпизодах).
Главы (Chapters)
7 глав в каждой серии (взяты с Blu-Ray)



Эпизод 1-2: LA X / Аэропорт Лос-Анджелеса
Эпизод 3: What Kate Does / Поступки Кейт
Эпизод 4: The Substitute / Замена
Эпизод 5: Lighthouse / Маяк
Эпизод 6: Sundown / Закат
Эпизод 7: Dr. Linus / Доктор Лайнус
Эпизод 8: Recon / Разведка
Эпизод 9: Ab Aeterno / Давным Давно
Эпизод 10: The Package / Посылка
Эпизод 11: Happily Ever After / Долго и Счастливо
Эпизод 12: Everybody Loves Hugo / Все Любят Хьюго
Эпизод 13: The Last Recruit / Последний Рекрут
Эпизод 14: The Candidate / Кандидат
Эпизод 15: Across The Sea / Из-за Моря
Эпизод 16: What They Died For / Ради Чего Они погибли
Эпизод 17-18: The End / Конец



General
Complete name : H:torrentLOSTSeason6Season6_BDrip_720pLost.S06E01-02.BDRip.720p.DTS5.1+DD2.0.RUS(Dub).CEZAR.mkv
Format : Matroska
File size : 4.36 GiB
Duration : 1h 24mn
Overall bit rate : 7 426 Kbps
Encoded date : UTC 2011-02-23 17:14:17
Writing application : mkvmerge v3.0.0 ('Hang up your Hang-Ups') built on Dec 12 2009 15:20:35
Writing library : libebml v0.7.9 + libmatroska v0.8.1
Video
ID : 1
Format : AVC
Format/Info : Advanced Video Codec
Format profile : High@L4.1
Format settings, CABAC : Yes
Format settings, ReFrames : 3 frames
Codec ID : V_MPEG4/ISO/AVC
Duration : 1h 24mn
Bit rate mode : Variable
Bit rate : 4 774 Kbps
Maximum bit rate : 40.0 Mbps
Width : 1 280 pixels
Height : 720 pixels
Display aspect ratio : 16:9
Frame rate : 23.976 fps
Color space : YUV
Chroma subsampling : 4:2:0
Bit depth : 8 bits
Scan type : Progressive
Bits/(Pixel*Frame) : 0.216
Stream size : 2.72 GiB (62%)
Writing library : x264 core 98 r1649 c54c47d
Encoding settings : cabac=1 / ref=4 / deblock=1:0:0 / analyse=0x3:0x133 / me=umh / subme=8 / psy=1 / psy_rd=1.00:0.00 / mixed_ref=1 / me_range=16 / chroma_me=1 / trellis=1 / 8x8dct=1 / cqm=0 / deadzone=21,11 / fast_pskip=0 / chroma_qp_offset=-2 / threads=3 / sliced_threads=0 / slices=4 / nr=0 / decimate=1 / interlaced=0 / constrained_intra=0 / bframes=3 / b_pyramid=1 / b_adapt=2 / b_bias=0 / direct=1 / weightb=1 / weightp=0 / keyint=24 / keyint_min=2 / scenecut=40 / intra_refresh=0 / rc_lookahead=24 / rc=2pass / mbtree=1 / bitrate=4774 / ratetol=1.0 / qcomp=0.60 / qpmin=10 / qpmax=51 / qpstep=4 / cplxblur=20.0 / qblur=0.5 / vbv_maxrate=40000 / vbv_bufsize=30000 / ip_ratio=1.40 / aq=1:1.00 / nal_hrd=vbr
Color primaries : BT.709-5, BT.1361, IEC 61966-2-4, SMPTE RP177
Transfer characteristics : BT.709-5, BT.1361
Matrix coefficients : BT.709-5, BT.1361, IEC 61966-2-4 709, SMPTE RP177
Audio #1
ID : 2
Format : AC-3
Format/Info : Audio Coding 3
Mode extension : CM (complete main)
Codec ID : A_AC3
Duration : 1h 24mn
Bit rate mode : Constant
Bit rate : 192 Kbps
Channel(s) : 2 channels
Channel positions : Front: L R
Sampling rate : 48.0 KHz
Bit depth : 16 bits
Stream size : 116 MiB (3%)
Title : Dub
Language : Russian
Audio #2
ID : 3
Format : DTS
Format/Info : Digital Theater Systems
Codec ID : A_DTS
Duration : 1h 24mn
Bit rate mode : Constant
Bit rate : 755 Kbps
Channel(s) : 6 channels
Channel positions : Front: L C R, Side: L R, LFE
Sampling rate : 48.0 KHz
Bit depth : 24 bits
Stream size : 454 MiB (10%)
Title : Lostfilm
Language : Russian
Audio #3
ID : 4
Format : DTS
Format/Info : Digital Theater Systems
Codec ID : A_DTS
Duration : 1h 24mn
Bit rate mode : Constant
Bit rate : 1 510 Kbps
Channel(s) : 6 channels
Channel positions : Front: L C R, Side: L R, LFE
Sampling rate : 48.0 KHz
Bit depth : 24 bits
Stream size : 908 MiB (20%)
Language : English
Audio #4
ID : 5
Format : AC-3
Format/Info : Audio Coding 3
Format profile : Dolby Digital
Mode extension : CM (complete main)
Codec ID : A_AC3
Duration : 1h 24mn
Bit rate mode : Constant
Bit rate : 192 Kbps
Channel(s) : 2 channels
Channel positions : Front: L R
Sampling rate : 48.0 KHz
Bit depth : 16 bits
Stream size : 116 MiB (3%)
Title : Producer's comments
Language : English
Text #1
ID : 6
Format : ASS
Codec ID : S_TEXT/ASS
Codec ID/Info : Advanced Sub Station Alpha
Title : Forced
Language : Russian
Text #2
ID : 7
Format : ASS
Codec ID : S_TEXT/ASS
Codec ID/Info : Advanced Sub Station Alpha
Language : Russian
Text #3
ID : 8
Format : ASS
Codec ID : S_TEXT/ASS
Codec ID/Info : Advanced Sub Station Alpha
Title : Producer's comments
Language : Russian
Text #4
ID : 9
Format : ASS
Codec ID : S_TEXT/ASS
Codec ID/Info : Advanced Sub Station Alpha
Language : English
Text #5
ID : 10
Format : ASS
Codec ID : S_TEXT/ASS
Codec ID/Info : Advanced Sub Station Alpha
Title : Producer's comments
Language : English
Menu
00:00:00.000 : en:Chapter 1
00:07:14.058 : en:Chapter 2
00:17:41.560 : en:Chapter 3
00:22:45.655 : en:Chapter 4
00:27:34.402 : en:Chapter 5
00:36:23.014 : en:Chapter 6
00:44:02.056 : en:Chapter 7
00:51:01.975 : en:Chapter 8
01:00:14.444 : en:Chapter 9
01:07:38.679 : en:Chapter 10
01:15:39.493 : en:Chapter 11
01:23:28.753 : en:Chapter 12
01:24:06.791 : en:Chapter 13





   Похожие торренты   Торрент   Размер 
В этой теме нет новых непрочитанных сообщений. Остаться в живых / Lost [S06] (2010) WEB-DL 720p | Дубляж

4 | 11

33.68 ГБ

В этой теме нет новых непрочитанных сообщений. Остаться в живых / Lost [S01-06] (2004-2010) BDRip 720p

40 | 282

188.7 ГБ

В этой теме нет новых непрочитанных сообщений. Остаться в живых / Lost [S01-06] (2004-2010) BDRip 720p HEVC

23 | 29

26.54 ГБ

В этой теме нет новых непрочитанных сообщений. Остаться в Живых / Lost [S01-06] (2004-2010) BDRip-AVC

10 | 27

111.67 ГБ

В этой теме нет новых непрочитанных сообщений. Остаться в Живых / Lost [S01-06] (2004-2010) BDRip | DUB

182 | 508

71.22 ГБ

В этой теме нет новых непрочитанных сообщений. Остаться в живых / Потерянные / LOST [S01-06] (2004-2010) BDRip

9 | 28

102.78 ГБ

В этой теме нет новых непрочитанных сообщений. Остаться в Живых / Lost [S01-06] (2004-2010) BDRip-AVC от R.G. HD-Films | 60 fps

8 | 86

227.21 ГБ




Вы не можете начинать темы
Вы не можете отвечать на сообщения
Вы не можете редактировать свои сообщения
Вы не можете удалять свои сообщения
Вы не можете добавлять вложения

Перейти:  
Для Мосгорсуда, Роскомнадзора и рекламодателей: mosgorsud-torrent[собачка]yandex.ru
 Вход
ppkBB3cker v.2 © 2008-2014 @ PPK
[ Time : 0.044s | 18 Queries | GZIP : Off ]

cron