img image001 image001 image001 image001 image001 image001 image001 image001 image001 image001 image001 image001 image001 image001 image001

Planets Sun Sun Sun
Статистика раздачи
Автор: Снежана | Размер: 4.37 ГБ | Добавлен: 25 июл 2013
Раздают: 18    Качают: 3
Скачать торрент
Скачать торрент
Описание торрента

СообщениеДобавлено: 25 июл 2013 

#77

Год выхода: 2010
Страна: Россия
Жанр: Action
Режиссер: Дмитрий Лавров
Автор сценариев: Михаил Погосов
В ролях: Евгений Березовский, Александр Воробьев, Наталья Громушкина, Олег Зиновьев, Дмитрий Клепацкий, Вячеслав Кулаков, Роман Ладнев, Виталий Максимов, Анна Невская, Арсен Симонян
Продолжительность: 8 серий по 50 мин.
Язык: Русский
Перевод: Оригинал (без перевода)

Видео: PAL 16:9 (720x576) VBR - 1 591 Kbps
Звук: Русский (Dolby AC3, 2 ch) 192 Кбит/сек

Сделано из DVD9 [исх. лицензия R5, PAL 16:9], Обработано в DVDRemake Pro.+Photoshop+Muxman
Видео сжималось

Сжималось связкой DVD Rebuilder + Canopus Grass Valley ProCoder 3.0 в 2 прохода.Mastering quality.
Удалёно: заставки и предупреждение и Все Доп материалы






General
Complete name : E:DVD5Джокер R5-DVD-5 ( DRG by delik1 )VIDEO_TSVTS_04_1.VOB
Format : MPEG-PS
File size : 496 MiB
Duration : 43mn 36s
Overall bit rate : 1 591 Kbps

Video
ID : 224 (0xE0)
Format : MPEG Video
Format version : Version 2
Format profile : Main@Main
Format settings, BVOP : Yes
Format settings, Matrix : Default
Duration : 7ms
Bit rate mode : Variable
Bit rate : 1 367 Kbps
Nominal bit rate : 5 388 Kbps
Width : 352 pixels
Height : 576 pixels
Display aspect ratio : 16:9
Frame rate : 25.000 fps
Standard : PAL
Color space : YUV
Chroma subsampling : 4:2:0
Bit depth : 8 bits
Scan type : Progressive
Scan order : Bottom Field First
Bits/(Pixel*Frame) : 0.270
Stream size : 1.17 KiB (0%)

Audio
ID : 128 (0x80)
Format : AC-3
Format/Info : Audio Coding 3
Mode extension : CM (complete main)
Duration : 43mn 36s
Bit rate mode : Constant
Bit rate : 192 Kbps
Channel(s) : 2 channels
Channel positions : Front: L R
Sampling rate : 48.0 KHz
Stream size : 59.9 MiB (12%)

Menu



Релиз от группы:



   Похожие торренты   Торрент   Размер 
В этой теме нет новых непрочитанных сообщений. Джокер [01-08 из 8] (2010) DVDRip от Кosmos

344 | 153

3.92 ГБ

В этой теме нет новых непрочитанных сообщений. Джокер [1-8 серии из 8] (2010) DVDRip от NovaLan

680 | 226

5.31 ГБ

В этой теме нет новых непрочитанных сообщений. Джокер (1991) DVDRip

60 | 11

1.25 ГБ

В этой теме нет новых непрочитанных сообщений. Джокер (1991) SATRip

20 | 12

797.05 МБ

В этой теме нет новых непрочитанных сообщений. Джокер: Возмездие (2014) DVB от Files-x

293 | 21

1.63 ГБ

В этой теме нет новых непрочитанных сообщений. Стас Михайлов - Джокер (2013) MP3

258 | 8

128.01 МБ

В этой теме нет новых непрочитанных сообщений. Доминик Джокер - Дежавю (2015) MP3

683 | 13

180.2 МБ




Вы не можете начинать темы
Вы не можете отвечать на сообщения
Вы не можете редактировать свои сообщения
Вы не можете удалять свои сообщения
Вы не можете добавлять вложения

Перейти:  
Для Мосгорсуда, Роскомнадзора и рекламодателей: mosgorsud-torrent[собачка]yandex.ru
 Вход
ppkBB3cker v.2 © 2008-2014 @ PPK
[ Time : 0.525s | 18 Queries | GZIP : Off ]
CGP output time : 0.013s | 5 Queries | GZIP : Off

Торрент трекер RUTOR.IN, Не можете зайти на rutor.org? Какой новый адрес рутор? Какое зеркало рутор? Не работает rutor.org и зеркала? Тогда наш торрент специально для вас. Rutor.in неофициальное зеркало rutor. В случае если у Вас заблокирован rutor или вдруг Вы не можете на него зайти, то Вы без труда сможете скачать бесплатно и без рекламы последние новинки кино, игр, сериалов и прочего у нас, на Rutor.in. Не нужно использовать прокси, чтобы зайти на рутор, достаточно воспользоваться нашим ресурсом. Все новые фильмы, игры, сериалы, книги и музыка за 2013 и 2014 годы через торрент бесплатно. Скачивайте фильмы в хорошем качестве, игры для пк, xbox, playstation без регистрации. У нас вы найдете новые Зарубежные сериалы и Русские сериалы 2013, 2014, 2015 годов. Оставайтесь с нами, качайте любимые фильмы, игры, сериалы, книги и музыку.