img image001 image001 image001 image001 image001 image001 image001 image001 image001 image001 image001 image001 image001 image001 image001

Planets Sun Sun Sun
Статистика раздачи
Автор: Снежана | Размер: 14.54 ГБ | Добавлен: 25 июл 2013
Раздают: 3    Качают: 5
Скачать торрент
Скачать торрент
Описание торрента

СообщениеДобавлено: 25 июл 2013 



Общая информация

Название: Реальные пацаны
Год выхода: 2010
Жанр: Комедийный телесериал (ситком)
Издание: Лицензионное

Сайт


Создатели и актеры

Режиссер: Жанна Кадникова
В ролях: Николай Наумов, Антон Богданов, Владимир Селиванов, Зоя Бербер, Мария Скорницкая, Марина Федункив, Армен Бежанян, Валентина Мазунина, Игорь Ознобихин, Алексей Базанов и др

Описание и рейтинги



Он встал на путь исправления и старается жить честно. Даже устроился на работу продавцом в салон связи, где тайно презирает напарника за обтягивающие маечки и нетрадиционный лоск. Помимо духовного роста, жизнь Коляна осложняют любовные терзания. Он встречается с девушкой, которая работает гигантской плюшевой таблеткой возле районной аптеки. А мечтает о девушке, которая учится в университете и летает на шопинг в Лондон. А еще жизнь Коляна осложняют друзья. Они не хотят, чтобы Колян исправлялся, они хотят все вместе кататься по району на тачках, лазить в общежитие к будущим медсестрам и отжимать мелочь у школьников.

О пацанах

Первый антигламурный ситком
Золушка усиленно работала, получила приглашение на бал, потом влюбилась в принца и устроила себе счастливую жизнь.
Колян из Перми усиленно воровал канализационные люки, получил за это условный срок, потом решил исправиться, влюбился в богатую девушку и устроил себе жизнь веселую.
Про Золушку сняли множество фильмов и мультиков.
Про Коляна сняли «Реальных пацанов».

«Реальные пацаны» - это новый эксперимент ТНТ на территории нового юмора. Канал, который уже несколько лет испытывает зрителя на прочность - а вот над этим можно смеяться? а так можно? а вот так? - снова предъявляет аудитории проект, аналогов которому на отечественном телевидении не было и, скорее всего, не будет. Авторы «Реальных пацанов» вошли в мир, где существуют миллионы наших соотечественников, - мир с коврами на стене, участковыми за стеной и пацанами в автосервисах. И сняли очень смешной, очень добрый и очень правдивый ситком о том, как этот мир живет. Отойдя от реальности ровно на ту дистанцию, с которой уже можно улыбаться и не зажимать нос.

Вся авторская группа и актеры «Пацанов» родом из Перми, где и снимается сериал. Для того, чтобы сделать «Пацанов» более правдивыми, авторы отказались от прописанного сценария. Диалоги на съемочной площадке придумывают сообща актеры, режиссер и продюсеры. Основной прием в «Пацанах» - это камера, которая как будто бы следует за Коляном везде и показывает его жизнь, ничего не скрывая.

Колян – реальный пацан. Он добрый и очень обаятельный. Что не помешало ему своровать несколько канализационных люков на металлолом. За это Коляна оформили на учет в милицию и обязали встать на путь исправления. Теперь он старается жить честно.
8 ноября 2010
Колян исправляется, пошел работать в салон сотовой связи. Там он совершенно случайно сталкивается со своей детской любовью, Лерой, которая выросла и стала гламурной девочкой. И берет у нее номер телефона. Но девушка у Коляна уже есть, она его по-своему любит: требует от него плюшевую игрушку. Кого же выберет наш реальный пацан?
9 ноября 2010
Колян хочет получше пообщаться с Лерой. Ради этого он готов на участие в вечеринке бальных танцоров. Только танцевать он не умеет вообще… Но у него отличные наставники: участковый, который требует от Коляна культурного досуга, и добрая бабушка из кружка бальных танцев при ДК!
10 ноября 2010
Колян пытается чебуреком разбудить страсть в Машке. Но Машка остается холодна, даже объевшись чебуреков. Тем временем друзья Коляна, Антоха и Вован, готовятся покорить девушек из медицинского общежития. А Антоха еще и в глаз получит.
11 ноября 2010
Колян хочет как бы «случайно» встретиться с Лерой в университете. Его друзья Антоха и Вован предлагают ему взять машину, которая стоит у них на ремонте. Коляну удается увидеть Леру, но, к несчастью, он запер своей тачкой джип Лериного папаши…
15 ноября 2010
Коляна очень напрягает работа в салоне сотовой связи. И тут папа Леры предлагает Коляну работать у него. Колян соглашается, чтобы быть ближе к Лере. Но оказывается, что работать он будет всего лишь курьером. В это время лучшая подруга Машки, Валя, настойчиво пытается поближе познакомиться с бывшим коллегой Коляна Эдиком. Но в тот же время Эдик не горит желанием знакомства с ней.
16 ноября 2010
Колян работает в фирме Лериного папы. Ему поручают доставить очень важный конверт в строго определенное время. Но Колян не может доставить конверт в срок – он помогает Лере разобраться с пьяной подругой. А еще в семью Коляна приходит участковый и окончательно портит всем настроение.
17 ноября 2010
У Коляна с Машкой юбилей. Машка хочет чтобы он ей подарил маленькую декоративную собачку. Колян обсуждает покупку собачки с Эдиком на работе в салоне сотовой связи. Этот разговор слышит Лера, которая пришла положить денег не телефон. Лера предлагает помочь с собачкой, но для этого Коляну придется посетить самый модный ночной клуб в Перми, состроив модную гламурную физиономию.
18 ноября 2010
Колян уже решил что окончательно потерял Леру и предлагает Машке переехать жить к нему. И тут обнаруживает Лерочку у себя в постели, которая предлагает заняться безумным сексом. Но Колян не воспользовался ситуацией, так как она была очень пьяна.
22 ноября 2010
Мама Коляна поругалась с Машкой. Колян с пацанами пошел в стриптиз бар и там они поссорились с чеченцами. Участковый Игорь Сергеевич предлагает очень своеобразное разрешение конфликта.
23 ноября 2010
Колян вступается за свою бывшую девушку Машку и оказывается втянут в конфликт с её бывшим парнем, вернувшимся из армии. Эдик не может решиться бросить Валю.
24 ноября 2010
Машка и Колян снова встречаются, однако у них появляются проблемы в сексе.
25 ноября 2010
Колян пытается встретиться с Лерой, для чего ходит в больницу к их бывшей учительнице английского языка. В конце серии Лера с Колей первый раз целуются.
29 ноября 2010
Ребята едут на шашлыки, Колян признается друзьям, что встречается с Лерой. Антоха подозревает, что старый друг Коляна — гей.
30 ноября 2010
В сериале "Реальные пацаны" нет серии №15. "Почему?" - спросишь ты. "Ну, так-то мы не знаем", - ответим мы. Так что будьте бдительны: после 14 серии идёт сразу же 16. Если кто-то предложит вам посмотреть, купить или попробовать 15 серию, знайте - это развод. Вот.
Друзья Коляна и подруги Леры обсуждают, что у тех еще не было секса. Машка делает тест на беременность и выясняет, что беременна, поэтому Колян принимает решение расстаться с Лерой.
1 декабря 2010
Оказалось, что Машка не беременна. Колян пытается вернуться к Лере, но та уже встречается с обеспеченным молодым человеком.
2 декабря 2010
В гости к Коляну приехал троюродный брат Димасик. Колян пытается объясниться с Лерой.
6 декабря 2010
Колян всё же сумел поговорить с Лерой, для этого ему пришлось найти способ попасть на благотворительный прием.
7 декабря 2010
Лера и Колян пытаются найти подходящее место для первого секса.
8 декабря 2010
Колян дарит Лере брошь, Эдик участвует в драке, а Ознобихин борется с «мафией» Наумовых.
9 декабря 2010


Страна: Россия
Студия: "Гуд Стори Медиа" по заказу "ТНТ-Телесеть"
Продолжительность: 242 + 223 мин (~24 минут серия + 10 минут Бонус)
Перевод: Оригинал

Технические параметры

Файл
Формат: DVD-Video
Аудио кодек:AC3
Видео Кодек: MPEG2
Качество: DVD9
Видео: PAL (4:3), 720х576@768x576, ~ 4451.35 kbps
Звук: AC3, 192 Kbps, 2 channels, 48.0 KHz
Субтитры: Отсутсвуют

Семпл
Все раздачи сериала


General
Complete name : D:VIDEO_TSVIDEO_TS.BUP
Format : DVD Video
Format profile : Menu
File size : 12.0 KiB

Video
ID : 224 (0xE0)
Format : MPEG Video
Format version : Version 2
Bit rate mode : Variable
Width : 720 pixels
Height : 576 pixels
Display aspect ratio : 4:3
Frame rate : 25.000 fps
Standard : PAL
Compression mode : Lossy

Text
Format : RLE
Format/Info : Run-length encoding
Bit depth : 2 bits

General
Complete name : D:VIDEO_TSVIDEO_TS.IFO
Format : DVD Video
Format profile : Menu
File size : 12.0 KiB

Video
ID : 224 (0xE0)
Format : MPEG Video
Format version : Version 2
Bit rate mode : Variable
Width : 720 pixels
Height : 576 pixels
Display aspect ratio : 4:3
Frame rate : 25.000 fps
Standard : PAL
Compression mode : Lossy

Text
Format : RLE
Format/Info : Run-length encoding
Bit depth : 2 bits

General
Complete name : D:VIDEO_TSVIDEO_TS.VOB
Format : MPEG-PS
File size : 3.08 MiB
Duration : 8s 80ms
Overall bit rate : 3 202 Kbps

Video
ID : 224 (0xE0)
Format : MPEG Video
Format version : Version 2
Format profile : Main@Main
Format settings, BVOP : Yes
Format settings, Matrix : Default
Format settings, GOP : M=3, N=10
Duration : 8s 80ms
Bit rate mode : Variable
Bit rate : 3 138 Kbps
Nominal bit rate : 8 000 Kbps
Width : 720 pixels
Height : 576 pixels
Display aspect ratio : 4:3
Frame rate : 25.000 fps
Standard : PAL
Color space : YUV
Chroma subsampling : 4:2:0
Bit depth : 8 bits
Scan type : Progressive
Compression mode : Lossy
Bits/(Pixel*Frame) : 0.303
Stream size : 3.02 MiB (98%)

Menu

General
Complete name : D:VIDEO_TSVTS_01_0.BUP
Format : DVD Video
Format profile : Program
File size : 186 KiB
Duration : 24mn 39s
Overall bit rate : 1 030 bps

Video
ID : 224 (0xE0)
Format : MPEG Video
Format version : Version 2
Duration : 24mn 39s
Bit rate mode : Variable
Width : 720 pixels
Height : 576 pixels
Display aspect ratio : 4:3
Frame rate : 25.000 fps
Standard : PAL
Compression mode : Lossy

Audio
ID : 128 (0x80)
Format : AC-3
Format/Info : Audio Coding 3
Duration : 24mn 39s
Channel(s) : 2 channels
Sampling rate : 48.0 KHz
Compression mode : Lossy
Language : Russian

Menu #1
Duration : 23mn 38s
00:00:00.000 : Chapter 1
00:23:37.520 : Chapter 2
List (Audio) : 0

Menu #2
Duration : 24mn 39s
00:00:00.000 : Chapter 1
00:24:38.200 : Chapter 2
List (Audio) : 0

Menu #3
Duration : 22mn 53s
00:00:00.000 : Chapter 1
00:22:52.080 : Chapter 2
List (Audio) : 0

Menu #4
Duration : 22mn 1s
00:00:00.000 : Chapter 1
00:22:00.120 : Chapter 2
List (Audio) : 0

Menu #5
Duration : 22mn 10s
00:00:00.000 : Chapter 1
00:22:09.960 : Chapter 2
List (Audio) : 0

Menu #6
Duration : 23mn 56s
00:00:00.000 : Chapter 1
00:23:55.600 : Chapter 2
List (Audio) : 0

Menu #7
Duration : 22mn 16s
00:00:00.000 : Chapter 1
00:22:15.960 : Chapter 2
List (Audio) : 0

Menu #8
Duration : 22mn 55s
00:00:00.000 : Chapter 1
00:22:54.400 : Chapter 2
List (Audio) : 0

Menu #9
Duration : 23mn 55s
00:00:00.000 : Chapter 1
00:23:54.840 : Chapter 2
List (Audio) : 0

Menu #10
Duration : 23mn 49s
00:00:00.000 : Chapter 1
00:23:48.800 : Chapter 2
List (Audio) : 0

General
Complete name : D:VIDEO_TSVTS_01_0.IFO
Format : DVD Video
Format profile : Program
File size : 186 KiB
Duration : 24mn 39s
Overall bit rate : 1 030 bps

Video
ID : 224 (0xE0)
Format : MPEG Video
Format version : Version 2
Duration : 24mn 39s
Bit rate mode : Variable
Width : 720 pixels
Height : 576 pixels
Display aspect ratio : 4:3
Frame rate : 25.000 fps
Standard : PAL
Compression mode : Lossy

Audio
ID : 128 (0x80)
Format : AC-3
Format/Info : Audio Coding 3
Duration : 24mn 39s
Channel(s) : 2 channels
Sampling rate : 48.0 KHz
Compression mode : Lossy
Language : Russian

Menu #1
Duration : 23mn 38s
00:00:00.000 : Chapter 1
00:23:37.520 : Chapter 2
List (Audio) : 0

Menu #2
Duration : 24mn 39s
00:00:00.000 : Chapter 1
00:24:38.200 : Chapter 2
List (Audio) : 0

Menu #3
Duration : 22mn 53s
00:00:00.000 : Chapter 1
00:22:52.080 : Chapter 2
List (Audio) : 0

Menu #4
Duration : 22mn 1s
00:00:00.000 : Chapter 1
00:22:00.120 : Chapter 2
List (Audio) : 0

Menu #5
Duration : 22mn 10s
00:00:00.000 : Chapter 1
00:22:09.960 : Chapter 2
List (Audio) : 0

Menu #6
Duration : 23mn 56s
00:00:00.000 : Chapter 1
00:23:55.600 : Chapter 2
List (Audio) : 0

Menu #7
Duration : 22mn 16s
00:00:00.000 : Chapter 1
00:22:15.960 : Chapter 2
List (Audio) : 0

Menu #8
Duration : 22mn 55s
00:00:00.000 : Chapter 1
00:22:54.400 : Chapter 2
List (Audio) : 0

Menu #9
Duration : 23mn 55s
00:00:00.000 : Chapter 1
00:23:54.840 : Chapter 2
List (Audio) : 0

Menu #10
Duration : 23mn 49s
00:00:00.000 : Chapter 1
00:23:48.800 : Chapter 2
List (Audio) : 0

General
Complete name : D:VIDEO_TSVTS_01_0.VOB
Format : MPEG-PS
File size : 1.88 MiB
Duration : 16s 416ms
Overall bit rate : 962 Kbps

Video
ID : 224 (0xE0)
Format : MPEG Video
Format version : Version 2
Format profile : Main@Main
Format settings, BVOP : No
Format settings, Matrix : Default
Format settings, GOP : N=1
Duration : 40ms
Bit rate mode : Constant
Bit rate : 751 Kbps
Nominal bit rate : 9 000 Kbps
Width : 720 pixels
Height : 576 pixels
Display aspect ratio : 4:3
Frame rate : 25.000 fps
Standard : PAL
Color space : YUV
Chroma subsampling : 4:2:0
Bit depth : 8 bits
Scan type : Progressive
Scan order : Top Field First
Compression mode : Lossy
Bits/(Pixel*Frame) : 0.072
Stream size : 3.67 KiB (0%)

Audio
ID : 128 (0x80)
Format : AC-3
Format/Info : Audio Coding 3
Mode extension : CM (complete main)
Duration : 16s 416ms
Bit rate mode : Constant
Bit rate : 192 Kbps
Channel(s) : 2 channels
Channel positions : Front: L R
Sampling rate : 48.0 KHz
Bit depth : 16 bits
Compression mode : Lossy
Stream size : 385 KiB (20%)

Text
ID : 32 (0x20)
Format : RLE
Format/Info : Run-length encoding

Menu

General
Complete name : D:VIDEO_TSVTS_01_1.VOB
Format : MPEG-PS
File size : 1 024 MiB
Duration : 7mn 47s
Overall bit rate : 18.4 Mbps

Video
ID : 224 (0xE0)
Format : MPEG Video
Format version : Version 2
Format profile : Main@Main
Format settings, BVOP : Yes
Format settings, Matrix : Default
Duration : 7mn 47s
Bit rate mode : Variable
Bit rate : 17.8 Mbps
Nominal bit rate : 9 000 Kbps
Width : 720 pixels
Height : 576 pixels
Display aspect ratio : 4:3
Frame rate : 25.000 fps
Standard : PAL
Color space : YUV
Chroma subsampling : 4:2:0
Bit depth : 8 bits
Scan type : Interlaced
Scan order : Top Field First
Compression mode : Lossy
Bits/(Pixel*Frame) : 1.718
Stream size : 993 MiB (97%)

Audio
ID : 128 (0x80)
Format : AC-3
Format/Info : Audio Coding 3
Mode extension : CM (complete main)
Duration : 7mn 47s
Bit rate mode : Constant
Bit rate : 192 Kbps
Channel(s) : 2 channels
Channel positions : Front: L R
Sampling rate : 48.0 KHz
Bit depth : 16 bits
Compression mode : Lossy
Stream size : 10.7 MiB (1%)

Menu

General
Complete name : D:VIDEO_TSVTS_01_2.VOB
Format : MPEG-PS
File size : 1 024 MiB
Duration : 7mn 33s
Overall bit rate : 18.9 Mbps

Video
ID : 224 (0xE0)
Format : MPEG Video
Format version : Version 2
Format profile : Main@Main
Format settings, BVOP : Yes
Format settings, Matrix : Default
Format settings, GOP : M=3, N=12
Duration : 7mn 33s
Bit rate mode : Variable
Bit rate : 18.4 Mbps
Nominal bit rate : 9 000 Kbps
Width : 720 pixels
Height : 576 pixels
Display aspect ratio : 4:3
Frame rate : 25.000 fps
Standard : PAL
Color space : YUV
Chroma subsampling : 4:2:0
Bit depth : 8 bits
Scan type : Interlaced
Scan order : Top Field First
Compression mode : Lossy
Bits/(Pixel*Frame) : 1.771
Stream size : 993 MiB (97%)

Audio
ID : 128 (0x80)
Format : AC-3
Format/Info : Audio Coding 3
Mode extension : CM (complete main)
Duration : 7mn 33s
Bit rate mode : Constant
Bit rate : 192 Kbps
Channel(s) : 2 channels
Channel positions : Front: L R
Sampling rate : 48.0 KHz
Bit depth : 16 bits
Compression mode : Lossy
Video delay : -208ms
Stream size : 10.4 MiB (1%)

Menu

General
Complete name : D:VIDEO_TSVTS_01_3.VOB
Format : MPEG-PS
File size : 1 024 MiB
Overall bit rate : 0

Video
ID : 224 (0xE0)
Format : MPEG Video
Format version : Version 2
Format profile : Main@Main
Format settings, BVOP : Yes
Format settings, Matrix : Default
Format settings, GOP : M=3, N=12
Bit rate mode : Variable
Nominal bit rate : 9 000 Kbps
Width : 720 pixels
Height : 576 pixels
Display aspect ratio : 4:3
Frame rate : 25.000 fps
Standard : PAL
Color space : YUV
Chroma subsampling : 4:2:0
Bit depth : 8 bits
Scan type : Interlaced
Scan order : Top Field First
Compression mode : Lossy
Bits/(Pixel*Frame) : 0.868

Audio
ID : 128 (0x80)
Format : AC-3
Format/Info : Audio Coding 3
Mode extension : CM (complete main)
Duration : -12mn 39s
Bit rate mode : Constant
Bit rate : 192 Kbps
Channel(s) : 2 channels
Channel positions : Front: L R
Sampling rate : 48.0 KHz
Bit depth : 16 bits
Compression mode : Lossy
Video delay : -232ms
Stream size : 2.05 ?iB

Menu

General
Complete name : D:VIDEO_TSVTS_01_4.VOB
Format : MPEG-PS
File size : 1 024 MiB
Duration : 9mn 14s
Overall bit rate : 15.5 Mbps

Video
ID : 224 (0xE0)
Format : MPEG Video
Format version : Version 2
Format profile : Main@Main
Format settings, BVOP : Yes
Format settings, Matrix : Default
Duration : 9mn 14s
Bit rate mode : Variable
Bit rate : 15.0 Mbps
Nominal bit rate : 9 000 Kbps
Width : 720 pixels
Height : 576 pixels
Display aspect ratio : 4:3
Frame rate : 25.000 fps
Standard : PAL
Color space : YUV
Chroma subsampling : 4:2:0
Bit depth : 8 bits
Scan type : Interlaced
Scan order : Top Field First
Compression mode : Lossy
Bits/(Pixel*Frame) : 1.445
Stream size : 991 MiB (97%)

Audio
ID : 128 (0x80)
Format : AC-3
Format/Info : Audio Coding 3
Mode extension : CM (complete main)
Duration : 9mn 14s
Bit rate mode : Constant
Bit rate : 192 Kbps
Channel(s) : 2 channels
Channel positions : Front: L R
Sampling rate : 48.0 KHz
Bit depth : 16 bits
Compression mode : Lossy
Video delay : -136ms
Stream size : 12.7 MiB (1%)

Menu

General
Complete name : D:VIDEO_TSVTS_01_5.VOB
Format : MPEG-PS
File size : 1 024 MiB
Duration : 7mn 53s
Overall bit rate : 18.1 Mbps

Video
ID : 224 (0xE0)
Format : MPEG Video
Format version : Version 2
Format profile : Main@Main
Format settings, BVOP : Yes
Format settings, Matrix : Default
Format settings, GOP : M=3, N=12
Duration : 7mn 53s
Bit rate mode : Variable
Bit rate : 17.6 Mbps
Nominal bit rate : 9 000 Kbps
Width : 720 pixels
Height : 576 pixels
Display aspect ratio : 4:3
Frame rate : 25.000 fps
Standard : PAL
Color space : YUV
Chroma subsampling : 4:2:0
Bit depth : 8 bits
Scan type : Interlaced
Scan order : Top Field First
Compression mode : Lossy
Bits/(Pixel*Frame) : 1.695
Stream size : 993 MiB (97%)

Audio
ID : 128 (0x80)
Format : AC-3
Format/Info : Audio Coding 3
Mode extension : CM (complete main)
Duration : 7mn 53s
Bit rate mode : Constant
Bit rate : 192 Kbps
Channel(s) : 2 channels
Channel positions : Front: L R
Sampling rate : 48.0 KHz
Bit depth : 16 bits
Compression mode : Lossy
Video delay : -216ms
Stream size : 10.8 MiB (1%)

Menu

General
Complete name : D:VIDEO_TSVTS_01_6.VOB
Format : MPEG-PS
File size : 1 024 MiB
Overall bit rate : 0

Video
ID : 224 (0xE0)
Format : MPEG Video
Format version : Version 2
Format profile : Main@Main
Format settings, BVOP : Yes
Format settings, Matrix : Default
Format settings, GOP : M=3, N=12
Bit rate mode : Variable
Nominal bit rate : 9 000 Kbps
Width : 720 pixels
Height : 576 pixels
Display aspect ratio : 4:3
Frame rate : 25.000 fps
Standard : PAL
Color space : YUV
Chroma subsampling : 4:2:0
Bit depth : 8 bits
Scan type : Interlaced
Scan order : Top Field First
Compression mode : Lossy
Bits/(Pixel*Frame) : 0.868

Audio
ID : 128 (0x80)
Format : AC-3
Format/Info : Audio Coding 3
Mode extension : CM (complete main)
Duration : -12mn 58s
Bit rate mode : Constant
Bit rate : 192 Kbps
Channel(s) : 2 channels
Channel positions : Front: L R
Sampling rate : 48.0 KHz
Bit depth : 16 bits
Compression mode : Lossy
Video delay : -240ms
Stream size : 2.05 ?iB

Menu

General
Complete name : D:VIDEO_TSVTS_01_7.VOB
Format : MPEG-PS
File size : 1 024 MiB
Duration : 9mn 52s
Overall bit rate : 14.5 Mbps

Video
ID : 224 (0xE0)
Format : MPEG Video
Format version : Version 2
Format profile : Main@Main
Format settings, BVOP : Yes
Format settings, Matrix : Default
Format settings, GOP : M=3, N=12
Duration : 9mn 52s
Bit rate mode : Variable
Bit rate : 14.0 Mbps
Nominal bit rate : 9 000 Kbps
Width : 720 pixels
Height : 576 pixels
Display aspect ratio : 4:3
Frame rate : 25.000 fps
Standard : PAL
Color space : YUV
Chroma subsampling : 4:2:0
Bit depth : 8 bits
Scan type : Interlaced
Scan order : Top Field First
Compression mode : Lossy
Bits/(Pixel*Frame) : 1.351
Stream size : 990 MiB (97%)

Audio
ID : 128 (0x80)
Format : AC-3
Format/Info : Audio Coding 3
Mode extension : CM (complete main)
Duration : 9mn 52s
Bit rate mode : Constant
Bit rate : 192 Kbps
Channel(s) : 2 channels
Channel positions : Front: L R
Sampling rate : 48.0 KHz
Bit depth : 16 bits
Compression mode : Lossy
Video delay : -192ms
Stream size : 13.6 MiB (1%)

Menu

General
Complete name : D:VIDEO_TSVTS_01_8.VOB
Format : MPEG-PS
File size : 223 MiB
Overall bit rate : 0

Video
ID : 224 (0xE0)
Format : MPEG Video
Format version : Version 2
Format profile : Main@Main
Format settings, BVOP : Yes
Format settings, Matrix : Default
Format settings, GOP : M=3, N=12
Bit rate mode : Variable
Nominal bit rate : 9 000 Kbps
Width : 720 pixels
Height : 576 pixels
Display aspect ratio : 4:3
Frame rate : 25.000 fps
Standard : PAL
Color space : YUV
Chroma subsampling : 4:2:0
Bit depth : 8 bits
Scan type : Interlaced
Scan order : Top Field First
Compression mode : Lossy
Bits/(Pixel*Frame) : 0.868

Audio
ID : 128 (0x80)
Format : AC-3
Format/Info : Audio Coding 3
Mode extension : CM (complete main)
Duration : 7mn 3s
Bit rate mode : Constant
Bit rate : 192 Kbps
Channel(s) : 2 channels
Channel positions : Front: L R
Sampling rate : 48.0 KHz
Bit depth : 16 bits
Compression mode : Lossy
Video delay : -216ms
Stream size : 9.69 MiB (4%)

Menu

General
Complete name : D:VIDEO_TSVTS_02_0.BUP
Format : DVD Video
Format profile : Program
File size : 18.0 KiB
Duration : 10mn 3s
Overall bit rate : 244 bps

Video
ID : 224 (0xE0)
Format : MPEG Video
Format version : Version 2
Duration : 10mn 3s
Bit rate mode : Variable
Width : 720 pixels
Height : 576 pixels
Display aspect ratio : 4:3
Frame rate : 25.000 fps
Standard : PAL
Compression mode : Lossy

Audio
ID : 128 (0x80)
Format : AC-3
Format/Info : Audio Coding 3
Duration : 10mn 3s
Channel(s) : 2 channels
Sampling rate : 48.0 KHz
Compression mode : Lossy
Language : Russian

Menu
Duration : 10mn 3s
00:00:00.000 : Chapter 1
00:10:02.840 : Chapter 2
List (Audio) : 0

General
Complete name : D:VIDEO_TSVTS_02_0.IFO
Format : DVD Video
Format profile : Program
File size : 18.0 KiB
Duration : 10mn 3s
Overall bit rate : 244 bps

Video
ID : 224 (0xE0)
Format : MPEG Video
Format version : Version 2
Duration : 10mn 3s
Bit rate mode : Variable
Width : 720 pixels
Height : 576 pixels
Display aspect ratio : 4:3
Frame rate : 25.000 fps
Standard : PAL
Compression mode : Lossy

Audio
ID : 128 (0x80)
Format : AC-3
Format/Info : Audio Coding 3
Duration : 10mn 3s
Channel(s) : 2 channels
Sampling rate : 48.0 KHz
Compression mode : Lossy
Language : Russian

Menu
Duration : 10mn 3s
00:00:00.000 : Chapter 1
00:10:02.840 : Chapter 2
List (Audio) : 0

General
Complete name : D:VIDEO_TSVTS_02_1.VOB
Format : MPEG-PS
File size : 307 MiB
Duration : 10mn 1s
Overall bit rate : 4 284 Kbps
Writing library : (c) 1998-2010 Womble Multimedia, Inc. / MPEG Video Wizard DVD 5.0.0.114 (01/2010) / Aug 21 2010

Video
ID : 224 (0xE0)
Format : MPEG Video
Format version : Version 2
Format profile : Main@Main
Format settings, BVOP : Yes
Format settings, Matrix : Default
Duration : 10mn 1s
Bit rate mode : Variable
Bit rate : 4 007 Kbps
Width : 720 pixels
Height : 576 pixels
Display aspect ratio : 4:3
Frame rate : 25.000 fps
Standard : PAL
Color space : YUV
Chroma subsampling : 4:2:0
Bit depth : 8 bits
Compression mode : Lossy
Bits/(Pixel*Frame) : 0.386
Stream size : 287 MiB (94%)
Writing library : (c) 1998-2010 Womble Multimedia, Inc. / MPEG Video Wizard DVD 5.0.0.114 (01/2010) / Aug 21 2010

Audio
ID : 128 (0x80)
Format : AC-3
Format/Info : Audio Coding 3
Mode extension : CM (complete main)
Duration : 10mn 1s
Bit rate mode : Constant
Bit rate : 192 Kbps
Channel(s) : 2 channels
Channel positions : Front: L R
Sampling rate : 48.0 KHz
Bit depth : 16 bits
Compression mode : Lossy
Stream size : 13.8 MiB (4%)

Menu


Доп. информация

Серии №15 не существует

Бонус:

Сцены, не вошедшие в фильм (10 минут)
Р.S. Бонус можно скачать отдельно. Диск 1-й




   Похожие торренты   Торрент   Размер 
В этой теме нет новых непрочитанных сообщений. OST. Реальные пацаны [Unofficial] (2010) MP3

5 | 3

113.72 МБ

В этой теме нет новых непрочитанных сообщений. Реальные пацаны [S01-02] (2010) DVDRip

0 | 4

11.46 ГБ

В этой теме нет новых непрочитанных сообщений. Реальные пацаны [S01-02x01-41] (2010) DVDRip от FoC

72 | 17

8.27 ГБ

В этой теме нет новых непрочитанных сообщений. Реальные пацаны [S01-06] (2010-2014) SATRip

351 | 696

40.21 ГБ

В этой теме нет новых непрочитанных сообщений. Unofficial Soundtrack - Реальные пацаны (2010) MP3

1 | 3

138.39 МБ

В этой теме нет новых непрочитанных сообщений. Реальные пацаны [01-02x01-50] (2010) DVDRip от New-Team

240 | 119

14.66 ГБ

В этой теме нет новых непрочитанных сообщений. Реальные пацаны / Блю Маунтин Стэйт / Blue Mountain State [S01] (2010) WebRip

30 | 11

3.45 ГБ




Вы не можете начинать темы
Вы не можете отвечать на сообщения
Вы не можете редактировать свои сообщения
Вы не можете удалять свои сообщения
Вы не можете добавлять вложения

Перейти:  
Для Мосгорсуда, Роскомнадзора и рекламодателей: mosgorsud-torrent[собачка]yandex.ru
 Вход
ppkBB3cker v.2 © 2008-2014 @ PPK
[ Time : 0.053s | 14 Queries | GZIP : Off ]

Торрент трекер RUTOR.IN, Не можете зайти на rutor.org? Какой новый адрес рутор? Какое зеркало рутор? Не работает rutor.org и зеркала? Тогда наш торрент специально для вас. Rutor.in неофициальное зеркало rutor. В случае если у Вас заблокирован rutor или вдруг Вы не можете на него зайти, то Вы без труда сможете скачать бесплатно и без рекламы последние новинки кино, игр, сериалов и прочего у нас, на Rutor.in. Не нужно использовать прокси, чтобы зайти на рутор, достаточно воспользоваться нашим ресурсом. Все новые фильмы, игры, сериалы, книги и музыка за 2013 и 2014 годы через торрент бесплатно. Скачивайте фильмы в хорошем качестве, игры для пк, xbox, playstation без регистрации. У нас вы найдете новые Зарубежные сериалы и Русские сериалы 2013, 2014, 2015 годов. Оставайтесь с нами, качайте любимые фильмы, игры, сериалы, книги и музыку.