img image001 image001 image001 image001 image001 image001 image001 image001 image001 image001 image001 image001 image001 image001 image001

Planets Sun Sun Sun
Статистика раздачи
Автор: Снежана | Размер: 123.5 ГБ | Добавлен: 25 июл 2013
Раздают: 18    Качают: 34
Скачать торрент
Скачать торрент
Описание торрента

СообщениеДобавлено: 25 июл 2013 

[imgright]http://s005.radikal.ru/i211/1104/eb/4199546fcc68.jpg[/imgright][b]Год выпуска[/b]: 2004-2010
[b]Страна[/b]: США
[b]Жанр[/b]: Драма, комедия
[b]Продолжительность[/b]: ~43 минуты серия
[b]Перевод[/b] :
-Профессиональный многоголосый закадровый - LostFilm (Студия "Кравец")
-Профессиональный многоголосый закадровый - телеканал "Домашний"
[b]Русские субтитры[/b]: есть

[b]Режиссёр[/b]: Брайан Сингер, Деран Сэрафьян, Дэниэл Сэкхайм, Дэниэл Эттиэс, Питер О'Фэллон

[b]В ролях[/b]: [color=#550000]Хью Лори[/color] (Dr. Gregory House), [color=#550000]Лиза Эдельштейн[/color] (Dr. Lisa Cuddy), [color=#550000]Роберт Шон Леонард[/color] (Dr. James Wilson), [color=#550000]Джесси Спенсер[/color] (Dr. Robert Chase), [color=#550000]Омар Эппс[/color] (Dr. Eric Foreman), [color=#550000]Дженнифер Моррисон[/color] (Dr. Allison Cameron), [color=#550000]Боббин Бергсторм[/color] (Nurse), [color=#550000]Оливия Уайлд[/color] (Dr. Remy 'Thirteen' Hadley),[color=#550000] Питер Джекобсон[/color] (Dr. Chris Taub), [color=#550000]Кэл Пенн [/color](Dr. Lawrence Kutner), [color=#550000]Энн Дудек[/color] (Dr. Amber Volakis), [color=#550000]Стефани Вендитто[/color] (Nurse Brenda Previn)

[b]Описание[/b]: Сериал House, M.D. рассказывает о команде врачей, которые должны правильно поставить диагноз пациенту и спасти его. В принципе сериал представляет из себя вариацию схемы «врач как детектив», но в отличие от остальных сериалов, где врачи обследуют уже мертвого пациента, в House, M.D. больной находится еще в живых. Возглавляет команду доктор Грегори Хаус, который ходит с тростью после того, как его мышечный инфаркт в правой ноге слишком поздно правильно диагностировали. Как врач Хаус просто гений, но сам не отличается проникновенностью в общении с больными и с удовольствием избегает их, если только есть возможность. Он сам всё время проводит в борьбе с собственной болью, а трость в его руке только подчеркивает его жесткую ядовитую манеру общения. Порой его поведение можно назвать почти бесчеловечным, и при этом он прекрасный врач, обладаюший нетипичным умом и безупречным инстинктом, что снискало ему глубокое уважение. Будучи инфекционистом, он ещё и замечательный диагност, который любит разгадывать медицинские загадки, чтобы спасти кому-то жизнь. Если бы все было по его воле, то Хаус лечил бы больных не выходя из своего кабинета.
[spoiler="Доп. информация о сериале:"]
* Вступительная музыкальная тема сериала - «Teardrop» группы Massive Attack - согласно правам и лицензионным постановлениям не используется при показе в Великобритании, Австралии и Новой Зеландии.
* Здание, используемое для наружных съемок Учебного Госпиталя Принстон-Плэйнсборо(Princeton-Plainsboro Teaching Hospital), на самом деле является Принстонским Университетским Клиническим Центром Фриста (Princeton University's Frist Campus Center). Свое название здание получило в честь возглавлявшего большинство в Сенате США Билла Фриста.
* Пробы Хью Лори на роль доктора Грегори Хауса проходили в туалете отеля в Намибии. Здесь актер репетировал свою роль для фильма «Полет Феникса», и по его словам, уборная была единственным местом, где было достаточно света.
* Во многих эпизодах можно увидеть доктора Хауса в кроссовках Nike, слушающего iPod-плеер, что, возможно, является примерами внедрения рекламы. Так же можно заметить, что он играет на - Gameboy Advance и Nintendo DS. Игры серии Metroid.
* Создатель сериала Дэвид Шор рассказал в интервью, что характер доктора Хауса частично навеян Шерлоком Холмсом. Среди особенностей, объединяющих обоих персонажей, есть такие, как способность придти к быстрому заключению после кратчайшего осмотра клиента/пациента, использование обоими наркотиков (кокаин у Холмса, викодин у Хауса), а также тот факт, что у обоих персонажей есть только один настоящий друг (Ватсон и Уилсон соответсвенно), который призывает рассудочного героя к человечным принципам.
* В первом эпизоде второго сезона Кадди нанимает мужчину-секретаря, и Хаус спрашивает: «В чем дело, J-Date больше не работает ?» J-Date - это популярный еврейский сайт знакомств.
* Хью Лори часто забывает, что Хаус не женат. В начале некоторых сцен на его левой руке можно заметить обручальное кольцо, но обычно к концу сцены... оно возвращется обратно, на правую руку.
* Хью Лори еще и писатель (он написал роман The Gun Seller /«Торговец пушками»/), музыкант (играет на нескольких инструментах) и водит мотоцикл.
* Дженнифер Моррисон, исполняющая роль доктора Кэмерон – натуральная блондинка.
* Во время прослушивания Хью Лори на роль Хауза, как вспоминает Дэвид Шор, Брайан Сингер, один из исполнительных продюсеров, сказал: «Смотри, это тот, кто нам нужен: типичный американец». Сингер совершенно не подозревал о том факте, что Лори – англичанин.
* Отец Хью Лори был врачом и актер испытывает чувство вины, что «исполняя роль доктора, я получаю больше денег, чем отец, всего лишь пытаясь изобразить эту профессию».
* Роберт Шон Леонард (доктор Джеймс Уилсон) играл в фильме The Violent Hour вместе со Скоттом Фоли. Фоли исполнил эпизодическую роль профессионального бейсболиста в серии “Sports Medicine” «Доктора Хауза».
* Хью Лори подвержен приступам депрессии. В такие периоды ему кажется, что он никому не нужен, что даже не достоин той популярности, которую дали ему сериал и роль, в которую он сам многое блестяще привнес. Часто можно увидеть, как на съемочной площадке «Доктора Хауза» актер сидит на полу и переживает, что мог бы сыграть лучше.
* В серии “Fidelity” доктор Хауc смотрит телевизор, по экрану которого пробегают титры. Одно из имен – “Мэрси Каплан”, предположительно парикмахер. Мэрси Г. Каплан – один из продюсеров сериала.
* В серии “Control”, мужчину, который не может говорить, зовут мистер Ван дер Мир. Гэрт Ван дер Мир – тоже продюсер сериала.
* В “Sports Medicine” Брайан Сингер (один из исполнительных продюсеров сериала) исполняет роль режиссера, снимающего противостероидную рекламу в самом начале серии.
* Хью Лори играет на пианино, саксофоне, гитаре с помощью приема глиссандо, акустической гитаре и губной гармошке.
* Одно из аутоиммунных заболеваний, волчанка, стало своеобразным рефреном сериала. Почти в каждом эпизоде волчанка упоминается как один из предполагаемых диагнозов, вероятно, из-за большого числа противоречивых симптомов, характерных для этой болезни. В DVD-издание второго сезона сериала даже был включён сюжет под названием «It Could Be Lupus…», смонтированный из сцен, в которых различные врачи (в основном доктор Кэмерон) озвучивают предположение о волчанке. В одном из эпизодов можно узнать, что Хаус прячет запас викодина в книге, посвящённой волчанке, оправдывая это тем, что книгой никто не пользуется. В эпизоде «Лучше тебе не знать» наконец-то появляется пациент, больной волчанкой, и Хаус восклицает: «Неужели это волчанка?! Мои мечты сбылись!».
* Хью Лори, проходя пробы для сериала, думал что главным героем будет доктор Джеймс Уилсон (Роберт Шон Леонард), а доктор Хаус будет его помощником.
* Настоящее имя героини Оливии Уайлд, Тринадцатой, - Рэйми Хедли (Remy Hadley).
* Доктор Хаус живёт в доме под номером 221B. Впервые это можно заметить в начале седьмой серии второго сезона.
* В эпизоде «Игры», гитара у рокера в начале называется так же как и заглавная тема в исполнении группы «Massive Attack» («Teardrop»).
* Крыса доктора Хауса получила имя в честь любимого актёра Хью Лори - Стива МакКуина.
* Первым актёром, которого утвердили на роль создатели сериала, был Роберт Шон Леонард.
* Среди записанных на TiVo доктора Хауса передач можно заметить сериал «Чёрная Гадюка», одну из главных ролей в котором исполнил Хью Лори.
* Аббревиатуру M.D. в названии сериала можно перевести не только как «доктор медицины» (лат. Medicinæ Doctor), но и как «психически неполноценный» (англ. mentally deficient). Примечательно, что в Италии расшифровали аббревиатуру в названии телесериала как «терапевтическое отделение» (англ. medical division).
* В кабинете доктора Уилсона висят постеры фильма Хичкока «Головокружение» и фильма Орсона Уэлса «Печать зла».
* В одном из эпизодов третьего сезона Хаус, находясь в камере в полицейском участке, зовет Триттера, обращаясь к нему «Гомер Пайл». Это имя персонажа из «Цельнометаллической оболочки» Кубрика рядового «Кучи».
* В 19 серии третьего сезона Хаус хвастается, что его письмо напечатали в таблоиде Universal Report. В газете можно рассмотреть заголовки «В мозге человека найдены сокровища» и «Арестован дантист-оборотень».
* В 5 сезоне, 13 серии в лаборатории Тауб и Тринадцать смотрят по телевизору фильм «Флетч» с Чеви Чейзом. В этом эпизоде Чеви Чейз притворялся врачом.[/spoiler]
[spoiler="Награды и номинации:"]
[b]Награды[/b]

[b]Эмми[/b]
2005 — Лучший сценарий драматического сериала (Дэвид Шор, эпизод «Три истории»)
2008 — Лучшая режиссура драмы (Грег Йатанес — «Голова Хауса»)

[b]Золотой глобус[/b]
2006 — Лучший актёр драматического сериала (Хью Лори в роли доктора Хауса)
2007 — Лучший актёр драматического сериала (Хью Лори в роли доктора Хауса)

Satellite Awards
2005 — Лучший драматический сериал
2005 — Лучший актёр драматического сериала (Хью Лори в роли доктора Хауса)
2005 — Лучшая актриса второго плана в сериале или телефильме (Лиза Эдельштейн в роли доктора Кадди)
2006 — Лучший драматический сериал
2006 — Лучший актёр драматического сериала (Хью Лори в роли доктора Хауса)

[b]Teen Choice Awards[/b]
2007 — Лучший актёр драматического сериала (Хью Лори в роли доктора Хауса)

[b]People’s Choice Awards[/b]
2007 — Лучший драматический сериал
2008 — Лучший драматический сериал
2009 — Лучший драматический сериал
2009 — Лучший телевизионный драматический актер (Хью Лори в роли доктора Хауса)
2010 — Лучший драматический сериал
2010 — Лучший телевизионный драматический актер (Хью Лори в роли доктора Хауса)
2011 — Лучший драматический сериал
2011 — Лучший телевизионный драматический актер (Хью Лори в роли доктора Хауса)
2011 — Лучшая телевизионная драматическая актриса (Лиза Эдельштейн в роли доктора Кадди)
2011 — Любимый телевизионный врач (Грегори Хаус)

[b]Номинации[/b]

[b]Эмми[/b]
2005 — Лучший актёр драматического сериала (Хью Лори в роли доктора Хауса)
2006 — Лучший драматический сериал
2007 — Лучший драматический сериал
2007 — Лучший актёр драматического сериала (Хью Лори в роли доктора Хауса)
2007 — Лучший приглашенный актёр драматического сериала (Дэвид Морс в роли детектива Триттера)
2009 — Лучший актёр драматического сериала (Хью Лори в роли доктора Хауса)
2010 — Лучший актёр драматического сериала (Хью Лори в роли доктора Хауса)

[b]Золотой глобус[/b]
2008 — Лучший актёр драматического сериала (Хью Лори в роли доктора Хауса)
2008 — Лучший драматический сериал
2010 — Лучший актёр драматического сериала (Хью Лори в роли доктора Хауса)
2010 — Лучший драматический сериал

[b]Satellite Awards[/b]
2007 — Лучший актёр драматического сериала (Хью Лори в роли доктора Хауса)

[b]Teen Choice Awards[/b]
2005 — Лучший драматический сериал
2005 — Сериал — открытие года
2005 — Актёр сериала — открытие года (Джесси Спенсер в роли доктора Чейза)
2006 — Лучший драматический или приключенческий сериал
2006 — Лучший актёр драматического сериала (Хью Лори в роли доктора Хауса)
2007 — Лучший драматический сериал[/spoiler]
[b]Исходник[/b]: WEB-DL 720p
[b]Кодек[/b]: Н 264
[b]Формат (контейнер)[/b]: MPEG-4 (MP4)
[b]Разрешение[/b]: 1280x720p
[b]Битрейт (качество)[/b]: CRF 20
[b]Аудио 1[/b]: 48 КГц AAC VBR 128k 2ch Русский - LostFilm
[b]Аудио 2[/b]: 48 КГц AAC VBR 128k 2ch Русский - Домашний
[b]Аудио 3[/b]: 48 КГц AAC VBR 128k 2ch Английский
[b]Субтитры[/b]: Русские / Английские
[url=http://www.imdb.com/title/tt0412142/][img]http://s.rutor.org/imdb/pic/0412142.gif[/img][/url] [url=http://www.kinopoisk.ru/level/1/film/178710/][img]http://www.kinopoisk.ru/rating/178710.gif[/img][/url]
[hr][/hr]
[b]СЕЗОН: 1[/b]
[spoiler="Список серий:"]
1 серия - Пилотная (Pilot)
2 серия - Отцовство (Paternity)
3 серия - Бритва Оккама (Occam's Razor )
4 серия - Материнство (Maternity )
5 серия - Осуждай, если хочешь (Damned If You Do)
6 серия - Метод Сократа (The Socratic Method)
7 серия - Верность (Fidelity)
8 cерия - Яд (Poison)
9 cерия - Отказ от реанимации (DNR)
10 серия - События прошлого (Histories)
11 cерия - Детоксикация (Detox)
12 cерия - Спортивная медицина (Sports Medicine)
13 cерия - Проклятый (Cursed)
14 серия - Контроль (Control)
15 cерия - Законы мафии (Mob Rules)
16 серия - Бремя (Heavy)
17 серия - Образец для подражания (Role Model)
18 cерия - Дети и вода в ванне (Babies & Bathwater)
19 серия - Дети (Kids)
20 cерия - Любовь зла (Love Hurts)
21 серия - Три истории (Three Stories)
22 серия - Медовый месяц (Honeymoon)[/spoiler]

[spoiler="MediaInfo:"]
Общее
Формат : MPEG-4
Профиль формата : Base Media / Version 2
Идентификатор кодека : mp42
Размер файла : 1,15 Гбайт
Продолжительность : 43 м.
Общий поток : 3762 Кбит/сек
Название фильма : 9 - Отказ от реанимации
Альбом : Доктор Хаус
Исполнитель : Дэвид Шор
Жанр : Drama
Дата записи : 2005
Дата кодирования : UTC 2010-12-11 18:55:45
Дата пометки : UTC 2010-12-17 21:53:00
Программа кодирования : HandBrake svn3688 2010112901
Правообладатель : Altruist
Обложка : Yes
iTunMOVI : / / / / cast / / / name / Хью Лори / / / name / Лиза Эделстайн / / / name / Омар Эппс / / / name / Роберт Шон Леонард / / / name / Дженнифер Моррисон / / / name / Джесси Спенсер / / / directors / / / name / Брайан Сингер / / / name / Деран Сэрафьян / / / name / Дэниэл Сэкхайм / / / name / Дэниэл Эттиэс / / / name / Питер О'Фэллон / / / /
tvsh : Доктор Хаус
tven : 109
tvsn : 1
tves : 9
desc : Сериал House, M.D. рассказывает о команде врачей, возглавляемых доктором Грегори Хаусом, которые должны правильно поставить диагноз пациенту и спасти его.
ldes : Доктор Грегори Хауз (Хью Лори) не отличается проникновенностью в общении с больными и с удовольствием избегает их, если только есть возможность. Он сам всё время проводит в борьбе с собственной болью, а трость в его руке только подчеркивает его жесткую ядовитую манеру общения. Порой его поведение можно назвать почти бесчеловечным, (Мама, а кто это ? Это сынок - подонок, который спас тебе жизнь. ) и при этом он прекрасный врач, обладаюший нетипичным умом и безупречным инстинктом, что снискало ему глубокое уважение. Будучи инфекционистом, он ещё и замечательный диагност, который любит разгадывать медицинские загадки, чтобы спасти кому-то жизнь.
hdvd : 1
stik : 10

Видео
Идентификатор : 1
Формат : AVC
Формат/Информация : Advanced Video Codec
Профиль формата : High@L3.1
Параметр CABAC формата : Да
Параметр ReFrames формата : 10 кадры
Параметры GOP формата : M=1, N=61
Идентификатор кодека : avc1
Идентификатор кодека/Информация : Advanced Video Coding
Продолжительность : 43 м.
Вид битрейта : Переменный
Битрейт : 3370 Кбит/сек
Ширина : 1280 пикс.
Высота : 720 пикс.
Соотношение сторон : 16:9
Режим частоты кадров : Переменный
Частота кадров : 23,976 кадр/сек
Минимальная частота кадров : 23,810 кадр/сек
Максимальная частота кадров : 24,390 кадр/сек
Цветовое пространство : YUV
Подвыборка цветности : 4:2:0
Битовая глубина : 8 бит
Тип развёртки : Прогрессивная
Бит/(Пиксели*Кадры) : 0.153
Размер потока : 1,03 Гбайт (90%)
Библиотека кодирования : x264 core 107
Настройки программы : cabac=1 / ref=10 / deblock=1:-2:-2 / analyse=0x3:0x133 / me=umh / subme=10 / psy=1 / psy_rd=2.00:0.50 / mixed_ref=1 / me_range=64 / chroma_me=1 / trellis=2 / 8x8dct=1 / cqm=0 / deadzone=21,11 / fast_pskip=0 / chroma_qp_offset=-4 / threads=18 / sliced_threads=0 / nr=0 / decimate=1 / interlaced=0 / constrained_intra=0 / bframes=10 / b_pyramid=2 / b_adapt=2 / b_bias=0 / direct=3 / weightb=0 / open_gop=0 / weightp=2 / keyint=240 / keyint_min=23 / scenecut=40 / intra_refresh=0 / rc_lookahead=40 / rc=crf / mbtree=1 / crf=20.0 / qcomp=0.60 / qpmin=10 / qpmax=51 / qpstep=4 / ip_ratio=1.40 / aq=1:1.00
Дата кодирования : UTC 2010-12-11 18:55:45
Дата пометки : UTC 2010-12-11 21:03:15
Основные цвета : BT.709-5, BT.1361, IEC 61966-2-4, SMPTE RP177
Характеристики трансфера : BT.709-5, BT.1361
Коэффициенты матрицы : BT.709-5, BT.1361, IEC 61966-2-4 709, SMPTE RP177

Аудио #1
Идентификатор : 2
Формат : AAC
Формат/Информация : Advanced Audio Codec
Профиль формата : LC
Идентификатор кодека : 40
Продолжительность : 43 м.
Вид битрейта : Переменный
Битрейт : 128 Кбит/сек
Максимальный битрейт : 256 Кбит/сек
Канал(ы) : 2 канала(ов)
Расположение каналов : Front: L R
Частота : 48,0 КГц
Метод сжатия : С потерями
Размер потока : 40,0 Мбайт (3%)
Язык : Russian
Дата кодирования : UTC 2010-12-11 18:55:45
Дата пометки : UTC 2010-12-11 21:03:14

Аудио #2
Идентификатор : 3
Формат : AAC
Формат/Информация : Advanced Audio Codec
Профиль формата : LC
Идентификатор кодека : 40
Продолжительность : 43 м.
Вид битрейта : Переменный
Битрейт : 128 Кбит/сек
Максимальный битрейт : 267 Кбит/сек
Канал(ы) : 2 канала(ов)
Расположение каналов : Front: L R
Частота : 48,0 КГц
Метод сжатия : С потерями
Размер потока : 40,0 Мбайт (3%)
Язык : Russian
Дата кодирования : UTC 2010-12-11 18:55:45
Дата пометки : UTC 2010-12-11 21:03:14

Аудио #3
Идентификатор : 4
Формат : AAC
Формат/Информация : Advanced Audio Codec
Профиль формата : LC
Идентификатор кодека : 40
Продолжительность : 43 м.
Вид битрейта : Переменный
Битрейт : 128 Кбит/сек
Максимальный битрейт : 242 Кбит/сек
Канал(ы) : 2 канала(ов)
Расположение каналов : Front: L R
Частота : 48,0 КГц
Метод сжатия : С потерями
Размер потока : 40,0 Мбайт (3%)
Язык : English
Дата кодирования : UTC 2010-12-11 18:55:45
Дата пометки : UTC 2010-12-11 21:03:14

Текст #1
Идентификатор : 5
Формат : Timed text
Режим смешивания : sbtl
Идентификатор кодека : tx3g
Продолжительность : 43 м.
Вид битрейта : Переменный
Битрейт : 97 бит/сек
Размер потока : 30,5 Кбайт (0%)
Язык : English
Дата кодирования : UTC 2010-12-11 18:55:45
Дата пометки : UTC 2010-12-11 21:02:30

Текст #2
Идентификатор : 6
Формат : Timed text
Режим смешивания : sbtl
Идентификатор кодека : tx3g
Продолжительность : 43 м.
Вид битрейта : Переменный
Битрейт : 175 бит/сек
Размер потока : 55,1 Кбайт (0%)
Язык : Russian
Дата кодирования : UTC 2010-12-11 18:55:45
Дата пометки : UTC 2010-12-11 21:02:44[/spoiler]
[spoiler="Скриншоты:"]
[url=http://fastpic.ru/view/19/2011/0408/485f35dc4fd1eac69d4603a3a6f5c442.png.html][img]http://i19.fastpic.ru/thumb/2011/0408/42/485f35dc4fd1eac69d4603a3a6f5c442.jpeg[/img][/url] [url=http://fastpic.ru/view/19/2011/0408/0e929cf2f1c43a985e4ce1e3288a140c.png.html][img]http://i19.fastpic.ru/thumb/2011/0408/0c/0e929cf2f1c43a985e4ce1e3288a140c.jpeg[/img][/url] [url=http://fastpic.ru/view/19/2011/0408/3eddef086f3d43225c773f2de2a21fe4.png.html][img]http://i19.fastpic.ru/thumb/2011/0408/e4/3eddef086f3d43225c773f2de2a21fe4.jpeg[/img][/url] [url=http://fastpic.ru/view/19/2011/0408/dec2acd4d9b22edb259c7ebdc0148921.png.html][img]http://i19.fastpic.ru/thumb/2011/0408/21/dec2acd4d9b22edb259c7ebdc0148921.jpeg[/img][/url] [url=http://fastpic.ru/view/19/2011/0408/afe0ae7230d907aec138f69e652a9cd1.png.html][img]http://i19.fastpic.ru/thumb/2011/0408/d1/afe0ae7230d907aec138f69e652a9cd1.jpeg[/img][/url][/spoiler]

[url=http://multi-up.com/467586][img]http://img2.immage.de/3003bfbsemple.jpg[/img][/url]
[hr][/hr]
[b]СЕЗОН: 2[/b]
[spoiler="Список серий:"]
1 серия - Признание (Acceptance).
2 серия - Аутопсия (Autopsy).
3 серия - Шалтай Болтай (Humpty Dumpty).
4 серия - Туберкулез или не Туберкулез (TB or Not TB).
5 серия - Папенькин сынок (Daddy's Boy).
6 серия - Крутой поворот (Spin).
7 серия - Охота (Hunting).
8 серия - Ошибка (The Mistake).
9 серия - Обман (Deception).
10 серия - Трудности перевода (Failure to Communicate).
11 серия - Необходимые знания (Need to Know).
12 серия - Отвлекающий раздражитель (Distractions).
13 серия - Внешность обманчива (Skin Deep).
14 серия - Секс убивает (Sex Kills).
15 серия - Невежество (Clueless).
16 серия - Безопасность (Safe).
17 серия - Высокие ставки (All In).
18 серия - Не будите спящую собаку (Sleeping Dogs Lie).
19 серия - Хауc против Бога (House vs. God).
20 серия - Эйфория. Часть 1 (Euphoria: Part 1).
21 серия - Эйфория. Часть 2 (Euphoria: Part 2).
22 серия - Навечно (Forever).
23 серия - Кто твой папочка (Who's Your Daddy).
24 серия - Без причин (No Reason).[/spoiler]

[spoiler="MediaInfo:"]
Общее
Формат : MPEG-4
Профиль формата : Base Media / Version 2
Идентификатор кодека : mp42
Размер файла : 1,21 Гбайт
Продолжительность : 43 м.
Общий поток : 3952 Кбит/сек
Название фильма : 6 - Крутой поворот
Альбом : Доктор Хаус
Исполнитель : Дэвид Шор
Жанр : Drama
Дата записи : 2005
Дата кодирования : UTC 2010-12-13 18:54:52
Дата пометки : UTC 2010-12-18 12:51:53
Программа кодирования : HandBrake svn3688 2010112901
Правообладатель : Altruist
Обложка : Yes
iTunMOVI : / / / / cast / / / name / Хью Лори / / / name / Лиза Эделстайн / / / name / Омар Эппс / / / name / Роберт Шон Леонард / / / name / Дженнифер Моррисон / / / name / Джесси Спенсер / / / directors / / / name / Брайан Сингер / / / name / Деран Сэрафьян / / / name / Дэниэл Сэкхайм / / / name / Дэниэл Эттиэс / / / name / Питер О'Фэллон / / / /
tvsh : Доктор Хаус
tven : 206
tvsn : 2
tves : 6
desc : Сериал House, M.D. рассказывает о команде врачей, возглавляемых доктором Грегори Хаусом, которые должны правильно поставить диагноз пациенту и спасти его.
ldes : Доктор Грегори Хауз (Хью Лори) не отличается проникновенностью в общении с больными и с удовольствием избегает их, если только есть возможность. Он сам всё время проводит в борьбе с собственной болью, а трость в его руке только подчеркивает его жесткую ядовитую манеру общения. Порой его поведение можно назвать почти бесчеловечным, (Мама, а кто это ? Это сынок - подонок, который спас тебе жизнь. ) и при этом он прекрасный врач, обладаюший нетипичным умом и безупречным инстинктом, что снискало ему глубокое уважение. Будучи инфекционистом, он ещё и замечательный диагност, который любит разгадывать медицинские загадки, чтобы спасти кому-то жизнь.
hdvd : 1
stik : 10

Видео
Идентификатор : 1
Формат : AVC
Формат/Информация : Advanced Video Codec
Профиль формата : High@L3.1
Параметр CABAC формата : Да
Параметр ReFrames формата : 10 кадры
Идентификатор кодека : avc1
Идентификатор кодека/Информация : Advanced Video Coding
Продолжительность : 43 м.
Вид битрейта : Переменный
Битрейт : 3560 Кбит/сек
Ширина : 1280 пикс.
Высота : 720 пикс.
Соотношение сторон : 16:9
Режим частоты кадров : Переменный
Частота кадров : 23,976 кадр/сек
Минимальная частота кадров : 23,419 кадр/сек
Максимальная частота кадров : 24,390 кадр/сек
Цветовое пространство : YUV
Подвыборка цветности : 4:2:0
Битовая глубина : 8 бит
Тип развёртки : Прогрессивная
Бит/(Пиксели*Кадры) : 0.161
Размер потока : 1,09 Гбайт (90%)
Библиотека кодирования : x264 core 107
Настройки программы : cabac=1 / ref=10 / deblock=1:-2:-2 / analyse=0x3:0x133 / me=umh / subme=10 / psy=1 / psy_rd=2.00:0.50 / mixed_ref=1 / me_range=64 / chroma_me=1 / trellis=2 / 8x8dct=1 / cqm=0 / deadzone=21,11 / fast_pskip=0 / chroma_qp_offset=-4 / threads=18 / sliced_threads=0 / nr=0 / decimate=1 / interlaced=0 / constrained_intra=0 / bframes=10 / b_pyramid=2 / b_adapt=2 / b_bias=0 / direct=3 / weightb=0 / open_gop=0 / weightp=2 / keyint=240 / keyint_min=23 / scenecut=40 / intra_refresh=0 / rc_lookahead=40 / rc=crf / mbtree=1 / crf=20.0 / qcomp=0.60 / qpmin=10 / qpmax=51 / qpstep=4 / ip_ratio=1.40 / aq=1:1.00
Дата кодирования : UTC 2010-12-13 18:54:52
Дата пометки : UTC 2010-12-13 21:04:31
Основные цвета : BT.709-5, BT.1361, IEC 61966-2-4, SMPTE RP177
Характеристики трансфера : BT.709-5, BT.1361
Коэффициенты матрицы : BT.709-5, BT.1361, IEC 61966-2-4 709, SMPTE RP177

Аудио #1
Идентификатор : 2
Формат : AAC
Формат/Информация : Advanced Audio Codec
Профиль формата : LC
Идентификатор кодека : 40
Продолжительность : 43 м.
Вид битрейта : Переменный
Битрейт : 128 Кбит/сек
Максимальный битрейт : 266 Кбит/сек
Канал(ы) : 2 канала(ов)
Расположение каналов : Front: L R
Частота : 48,0 КГц
Метод сжатия : С потерями
Размер потока : 40,2 Мбайт (3%)
Язык : Russian
Дата кодирования : UTC 2010-12-13 18:54:52
Дата пометки : UTC 2010-12-13 21:04:31

Аудио #2
Идентификатор : 3
Формат : AAC
Формат/Информация : Advanced Audio Codec
Профиль формата : LC
Идентификатор кодека : 40
Продолжительность : 43 м.
Вид битрейта : Переменный
Битрейт : 128 Кбит/сек
Максимальный битрейт : 158 Кбит/сек
Канал(ы) : 2 канала(ов)
Расположение каналов : Front: L R
Частота : 48,0 КГц
Метод сжатия : С потерями
Размер потока : 40,3 Мбайт (3%)
Язык : Russian
Дата кодирования : UTC 2010-12-13 18:54:52
Дата пометки : UTC 2010-12-13 21:04:31

Аудио #3
Идентификатор : 4
Формат : AAC
Формат/Информация : Advanced Audio Codec
Профиль формата : LC
Идентификатор кодека : 40
Продолжительность : 43 м.
Вид битрейта : Переменный
Битрейт : 128 Кбит/сек
Максимальный битрейт : 228 Кбит/сек
Канал(ы) : 2 канала(ов)
Расположение каналов : Front: L R
Частота : 48,0 КГц
Метод сжатия : С потерями
Размер потока : 40,2 Мбайт (3%)
Язык : English
Дата кодирования : UTC 2010-12-13 18:54:52
Дата пометки : UTC 2010-12-13 21:04:31

Текст #1
Идентификатор : 5
Формат : Timed text
Режим смешивания : sbtl
Идентификатор кодека : tx3g
Продолжительность : 41 м.
Вид битрейта : Переменный
Битрейт : 108 бит/сек
Размер потока : 32,9 Кбайт (0%)
Язык : English
Дата кодирования : UTC 2010-12-13 18:54:52
Дата пометки : UTC 2010-12-13 20:59:42

Текст #2
Идентификатор : 6
Формат : Timed text
Режим смешивания : sbtl
Идентификатор кодека : tx3g
Продолжительность : 41 м.
Вид битрейта : Переменный
Битрейт : 193 бит/сек
Размер потока : 59,0 Кбайт (0%)
Язык : Russian
Дата кодирования : UTC 2010-12-13 18:54:52
Дата пометки : UTC 2010-12-13 20:59:41
[/spoiler]
[spoiler="Скриншоты:"]
[url=http://fastpic.ru/view/19/2011/0408/76cce54a0b992fbdfd37800b5138466c.png.html][img]http://i19.fastpic.ru/thumb/2011/0408/6c/76cce54a0b992fbdfd37800b5138466c.jpeg[/img][/url] [url=http://fastpic.ru/view/19/2011/0408/2ce94c878869dc8c5bbb87c1f84eee84.png.html][img]http://i19.fastpic.ru/thumb/2011/0408/84/2ce94c878869dc8c5bbb87c1f84eee84.jpeg[/img][/url] [url=http://fastpic.ru/view/19/2011/0408/a6379a1661a2fdfc3c916468c33ad49c.png.html][img]http://i19.fastpic.ru/thumb/2011/0408/9c/a6379a1661a2fdfc3c916468c33ad49c.jpeg[/img][/url] [url=http://fastpic.ru/view/19/2011/0408/df4a376a6c8ac00d0d1d97367250ae29.png.html][img]http://i19.fastpic.ru/thumb/2011/0408/29/df4a376a6c8ac00d0d1d97367250ae29.jpeg[/img][/url] [url=http://fastpic.ru/view/19/2011/0408/d70d82e029d05a6e3f040bf496972d0c.png.html][img]http://i19.fastpic.ru/thumb/2011/0408/0c/d70d82e029d05a6e3f040bf496972d0c.jpeg[/img][/url] [url=http://fastpic.ru/view/19/2011/0408/d1ad8bead3f976c907747f8296cee1a6.png.html][img]http://i19.fastpic.ru/thumb/2011/0408/a6/d1ad8bead3f976c907747f8296cee1a6.jpeg[/img][/url]
[/spoiler]

[url=http://multi-up.com/467588][img]http://img2.immage.de/3003bfbsemple.jpg[/img][/url]
[hr][/hr]
[b]СЕЗОН: 3[/b]
[spoiler="Список серий:"]
1 серия - Смысл (Meaning).
2 серия - Каин и Авель (Cane and Able).
3 серия - Официальное согласие (Informed Consent).
4 серия - Линии на песке (Lines in the Sand).
5 серия - Любовь зла (Fools for Love).
6 серия - Будь, что будет (Que Sera Sera).
7 серия - Сын коматозника (Son of Coma Guy).
8 серия - Из огня да в полымя (Whac-A-Mole).
9 серия - В поисках Иуды (Finding Judas).
10 серия - Крошечное веселое Рождество (Merry Little Christmas).
11 серия - Слова и дела (Words and Deeds).
12 серия - Один день - одна комната (One Day, One Room).
13 серия - Иголка в стоге сена (Needle in a Haystack).
14 серия - Бесчувственность (Insensitive).
15 серия - Недоумок (Half-Wit).
16 серия - Совершенно секретно (Top Secret).
17 серия - Положение плода (Fetal Position).
18 серия - В воздухе (Airborne).
19 серия - Веди себя по-взрослому (Act Your Age).
20 серия - Воспитание щенков (House Training).
21 серия - Семья (Family).
22 серия - Увольнение (Resignation).
23 серия - Гаденыш (The Jerk).
24 серия - Человеческий фактор (Human Error).[/spoiler]
[spoiler="MediaInfo:"]
Общее
Формат : MPEG-4
Профиль формата : Base Media / Version 2
Идентификатор кодека : mp42
Размер файла : 933 Мбайт
Продолжительность : 43 м.
Общий поток : 2994 Кбит/сек
Название фильма : 3 - Официальное согласие
Альбом : Доктор Хаус
Исполнитель : Дэвид Шор
Жанр : Drama
Дата записи : 2006
Дата кодирования : UTC 2010-12-15 07:04:50
Дата пометки : UTC 2010-12-18 13:18:03
Программа кодирования : HandBrake svn3688 2010112901
Правообладатель : Altruist
Обложка : Yes
iTunMOVI : / / / / cast / / / name / Хью Лори / / / name / Лиза Эделстайн / / / name / Омар Эппс / / / name / Роберт Шон Леонард / / / name / Дженнифер Моррисон / / / name / Джесси Спенсер / / / directors / / / name / Брайан Сингер / / / name / Деран Сэрафьян / / / name / Дэниэл Сэкхайм / / / name / Дэниэл Эттиэс / / / name / Питер О'Фэллон / / / /
tvsh : Доктор Хаус
tven : 303
tvsn : 3
tves : 3
desc : Сериал House, M.D. рассказывает о команде врачей, возглавляемых доктором Грегори Хаусом, которые должны правильно поставить диагноз пациенту и спасти его.
ldes : Доктор Грегори Хауз (Хью Лори) не отличается проникновенностью в общении с больными и с удовольствием избегает их, если только есть возможность. Он сам всё время проводит в борьбе с собственной болью, а трость в его руке только подчеркивает его жесткую ядовитую манеру общения. Порой его поведение можно назвать почти бесчеловечным, (Мама, а кто это ? Это сынок - подонок, который спас тебе жизнь. ) и при этом он прекрасный врач, обладаюший нетипичным умом и безупречным инстинктом, что снискало ему глубокое уважение. Будучи инфекционистом, он ещё и замечательный диагност, который любит разгадывать медицинские загадки, чтобы спасти кому-то жизнь.
hdvd : 1
stik : 10

Видео
Идентификатор : 1
Формат : AVC
Формат/Информация : Advanced Video Codec
Профиль формата : High@L3.1
Параметр CABAC формата : Да
Параметр ReFrames формата : 10 кадры
Идентификатор кодека : avc1
Идентификатор кодека/Информация : Advanced Video Coding
Продолжительность : 43 м.
Вид битрейта : Переменный
Битрейт : 2602 Кбит/сек
Ширина : 1280 пикс.
Высота : 720 пикс.
Соотношение сторон : 16:9
Режим частоты кадров : Переменный
Частота кадров : 23,976 кадр/сек
Минимальная частота кадров : 23,419 кадр/сек
Максимальная частота кадров : 24,390 кадр/сек
Цветовое пространство : YUV
Подвыборка цветности : 4:2:0
Битовая глубина : 8 бит
Тип развёртки : Прогрессивная
Бит/(Пиксели*Кадры) : 0.118
Размер потока : 811 Мбайт (87%)
Библиотека кодирования : x264 core 107
Настройки программы : cabac=1 / ref=10 / deblock=1:-2:-2 / analyse=0x3:0x133 / me=umh / subme=10 / psy=1 / psy_rd=2.00:0.50 / mixed_ref=1 / me_range=64 / chroma_me=1 / trellis=2 / 8x8dct=1 / cqm=0 / deadzone=21,11 / fast_pskip=0 / chroma_qp_offset=-4 / threads=18 / sliced_threads=0 / nr=0 / decimate=1 / interlaced=0 / constrained_intra=0 / bframes=10 / b_pyramid=2 / b_adapt=2 / b_bias=0 / direct=3 / weightb=0 / open_gop=0 / weightp=2 / keyint=240 / keyint_min=23 / scenecut=40 / intra_refresh=0 / rc_lookahead=40 / rc=crf / mbtree=1 / crf=20.0 / qcomp=0.60 / qpmin=10 / qpmax=51 / qpstep=4 / ip_ratio=1.40 / aq=1:1.00
Дата кодирования : UTC 2010-12-15 07:04:50
Дата пометки : UTC 2010-12-15 08:48:40
Основные цвета : BT.709-5, BT.1361, IEC 61966-2-4, SMPTE RP177
Характеристики трансфера : BT.709-5, BT.1361
Коэффициенты матрицы : BT.709-5, BT.1361, IEC 61966-2-4 709, SMPTE RP177

Аудио #1
Идентификатор : 2
Формат : AAC
Формат/Информация : Advanced Audio Codec
Профиль формата : LC
Идентификатор кодека : 40
Продолжительность : 43 м.
Вид битрейта : Переменный
Битрейт : 128 Кбит/сек
Максимальный битрейт : 264 Кбит/сек
Канал(ы) : 2 канала(ов)
Расположение каналов : Front: L R
Частота : 48,0 КГц
Метод сжатия : С потерями
Размер потока : 39,8 Мбайт (4%)
Язык : Russian
Дата кодирования : UTC 2010-12-15 07:04:50
Дата пометки : UTC 2010-12-15 08:48:40

Аудио #2
Идентификатор : 3
Формат : AAC
Формат/Информация : Advanced Audio Codec
Профиль формата : LC
Идентификатор кодека : 40
Продолжительность : 43 м.
Вид битрейта : Переменный
Битрейт : 127 Кбит/сек
Максимальный битрейт : 153 Кбит/сек
Канал(ы) : 2 канала(ов)
Расположение каналов : Front: L R
Частота : 48,0 КГц
Метод сжатия : С потерями
Размер потока : 39,7 Мбайт (4%)
Язык : Russian
Дата кодирования : UTC 2010-12-15 07:04:50
Дата пометки : UTC 2010-12-15 08:48:40

Аудио #3
Идентификатор : 4
Формат : AAC
Формат/Информация : Advanced Audio Codec
Профиль формата : LC
Идентификатор кодека : 40
Продолжительность : 43 м.
Вид битрейта : Переменный
Битрейт : 128 Кбит/сек
Максимальный битрейт : 256 Кбит/сек
Канал(ы) : 2 канала(ов)
Расположение каналов : Front: L R
Частота : 48,0 КГц
Метод сжатия : С потерями
Размер потока : 39,9 Мбайт (4%)
Язык : English
Дата кодирования : UTC 2010-12-15 07:04:50
Дата пометки : UTC 2010-12-15 08:48:40

Текст #1
Идентификатор : 5
Формат : Timed text
Режим смешивания : sbtl
Идентификатор кодека : tx3g
Продолжительность : 42 м.
Вид битрейта : Переменный
Битрейт : 158 бит/сек
Размер потока : 49,2 Кбайт (0%)
Язык : Russian
Дата кодирования : UTC 2010-12-15 07:04:50
Дата пометки : UTC 2010-12-15 08:47:46

Текст #2
Идентификатор : 6
Формат : Timed text
Режим смешивания : sbtl
Идентификатор кодека : tx3g
Продолжительность : 42 м.
Вид битрейта : Переменный
Битрейт : 88 бит/сек
Размер потока : 27,5 Кбайт (0%)
Язык : English
Дата кодирования : UTC 2010-12-15 07:04:50
Дата пометки : UTC 2010-12-15 08:47:48[/spoiler]

[spoiler="Скриншоты:"]
[url=http://fastpic.ru/view/19/2011/0408/82378c8a8cf8c004300d02fc093598ff.png.html][img]http://i19.fastpic.ru/thumb/2011/0408/ff/82378c8a8cf8c004300d02fc093598ff.jpeg[/img][/url] [url=http://fastpic.ru/view/19/2011/0408/f47f1fa4de69e22cb27527bd19968b3a.png.html][img]http://i19.fastpic.ru/thumb/2011/0408/3a/f47f1fa4de69e22cb27527bd19968b3a.jpeg[/img][/url] [url=http://fastpic.ru/view/19/2011/0408/108ed0b6ffd4487d79c57aa02d1c56b0.png.html][img]http://i19.fastpic.ru/thumb/2011/0408/b0/108ed0b6ffd4487d79c57aa02d1c56b0.jpeg[/img][/url] [url=http://fastpic.ru/view/19/2011/0408/e4ca234812bf4e6376c68bbd8f25aada.png.html][img]http://i19.fastpic.ru/thumb/2011/0408/da/e4ca234812bf4e6376c68bbd8f25aada.jpeg[/img][/url] [url=http://fastpic.ru/view/19/2011/0408/fba08b56827e0d0e80f0078efe6e732f.png.html][img]http://i19.fastpic.ru/thumb/2011/0408/2f/fba08b56827e0d0e80f0078efe6e732f.jpeg[/img][/url] [url=http://fastpic.ru/view/19/2011/0408/c491502b47149c9419caa8eb3839abc9.png.html][img]http://i19.fastpic.ru/thumb/2011/0408/c9/c491502b47149c9419caa8eb3839abc9.jpeg[/img][/url]
[/spoiler]
[url=http://multi-up.com/467589][img]http://img2.immage.de/3003bfbsemple.jpg[/img][/url]
[hr][/hr]
[b]СЕЗОН: 4[/b]
[spoiler="Список серий:"]
1 серия - Один (Alone).
2 серия - То, что нужно (The Right Stuff).
3 серия - 97 секунд (97 Seconds).
4 серия - Ангелы-хранители (Guardian Angels).
5 серия - Зеркало, зеркало (Mirror Mirror).
6 серия - Готовы на всё (Whatever It Takes).
7 серия - Урод (Ugly).
8 серия - Лучше тебе не знать (You Don't Want to Know).
9 серия - Игры (Games).
10 серия - Чудесная ложь (It's a Wonderful Lie).
11 серия - Во льдах (Frozen).
12 серия - Никогда не меняйся (Don't Ever Change).
13 серия - Прощайте, мистер Добряк (No More Mr. Nice Guy).
14 серия - Воплощая мечты (Living the Dream).
15 серия - Голова Хауса (House's Head).
16 серия - Сердце Уилсона (Wilson's Heart).[/spoiler]

[spoiler="MediaInfo:"]
Общее
Формат : MPEG-4
Профиль формата : Base Media / Version 2
Идентификатор кодека : mp42
Размер файла : 993 Мбайт
Продолжительность : 43 м.
Общий поток : 3164 Кбит/сек
Название фильма : Ангелы-хранители
Альбом : Доктор Хаус
Часть/Положение : 4
Часть/Всего : 0
Дорожка/Положение : 4
Дорожка/Всего : 16
Исполнитель : Дэвид Шор
Жанр : Drama
Дата записи : 2007
Дата кодирования : UTC 2010-12-17 01:18:21
Дата пометки : UTC 2010-12-28 18:28:02
Программа кодирования : HandBrake svn3688 2010112901
Правообладатель : Altruist
Обложка : Yes
iTunMOVI : / / / / cast / / / name / Хью Лори / / / name / Лиза Эдельcтейн / / / name / Омар Эппс / / / name / Роберт Шон Леонард / / / name / Дженнифер Моррисон / / / name / Джесси Спенсер / / / name / Кэл Пэнн / / / name / Оливия Уайлд / / / name / Питер Джейкобсон / / / directors / / / name / Деран Сэрафьян / / / name / Брайан Сингер / / / name / Дэниэл Сэкхайм / / / name / Дэниэл Эттиэс / / / name / Питер О'Фэллон / / / /
tvsh : Доктор Хаус
tven : 404
tvsn : 4
tves : 4
desc : Сериал House, M.D. рассказывает о команде врачей, возглавляемых доктором Грегори Хаусом, которые должны правильно поставить диагноз пациенту и спасти его.
ldes : Доктор Грегори Хауз (Хью Лори) не отличается проникновенностью в общении с больными и с удовольствием избегает их, если только есть возможность. Он сам всё время проводит в борьбе с собственной болью, а трость в его руке только подчеркивает его жесткую ядовитую манеру общения. Порой его поведение можно назвать почти бесчеловечным, (Мама, а кто это ? Это сынок - подонок, который спас тебе жизнь. ) и при этом он прекрасный врач, обладаюший нетипичным умом и безупречным инстинктом, что снискало ему глубокое уважение. Будучи инфекционистом, он ещё и замечательный диагност, который любит разгадывать медицинские загадки, чтобы спасти кому-то жизнь.
hdvd : 1
stik : 10

Видео
Идентификатор : 1
Формат : AVC
Формат/Информация : Advanced Video Codec
Профиль формата : High@L3.1
Параметр CABAC формата : Да
Параметр ReFrames формата : 10 кадры
Идентификатор кодека : avc1
Идентификатор кодека/Информация : Advanced Video Coding
Продолжительность : 43 м.
Вид битрейта : Переменный
Битрейт : 2771 Кбит/сек
Ширина : 1280 пикс.
Высота : 720 пикс.
Соотношение сторон : 16:9
Режим частоты кадров : Переменный
Частота кадров : 23,976 кадр/сек
Минимальная частота кадров : 23,438 кадр/сек
Максимальная частота кадров : 24,390 кадр/сек
Цветовое пространство : YUV
Подвыборка цветности : 4:2:0
Битовая глубина : 8 бит
Тип развёртки : Прогрессивная
Бит/(Пиксели*Кадры) : 0.125
Размер потока : 869 Мбайт (88%)
Библиотека кодирования : x264 core 107
Настройки программы : cabac=1 / ref=10 / deblock=1:-2:-2 / analyse=0x3:0x133 / me=umh / subme=10 / psy=1 / psy_rd=2.00:0.50 / mixed_ref=1 / me_range=64 / chroma_me=1 / trellis=2 / 8x8dct=1 / cqm=0 / deadzone=21,11 / fast_pskip=0 / chroma_qp_offset=-4 / threads=18 / sliced_threads=0 / nr=0 / decimate=1 / interlaced=0 / constrained_intra=0 / bframes=10 / b_pyramid=2 / b_adapt=2 / b_bias=0 / direct=3 / weightb=0 / open_gop=0 / weightp=2 / keyint=240 / keyint_min=24 / scenecut=40 / intra_refresh=0 / rc_lookahead=40 / rc=crf / mbtree=1 / crf=20.0 / qcomp=0.60 / qpmin=10 / qpmax=51 / qpstep=4 / ip_ratio=1.40 / aq=1:1.00
Дата кодирования : UTC 2010-12-17 01:18:21
Дата пометки : UTC 2010-12-17 03:01:00
Основные цвета : BT.709-5, BT.1361, IEC 61966-2-4, SMPTE RP177
Характеристики трансфера : BT.709-5, BT.1361
Коэффициенты матрицы : BT.709-5, BT.1361, IEC 61966-2-4 709, SMPTE RP177

Аудио #1
Идентификатор : 2
Формат : AAC
Формат/Информация : Advanced Audio Codec
Профиль формата : LC
Идентификатор кодека : 40
Продолжительность : 43 м.
Вид битрейта : Переменный
Битрейт : 128 Кбит/сек
Максимальный битрейт : 184 Кбит/сек
Канал(ы) : 2 канала(ов)
Расположение каналов : Front: L R
Частота : 48,0 КГц
Метод сжатия : С потерями
Размер потока : 40,2 Мбайт (4%)
Язык : Russian
Дата кодирования : UTC 2010-12-17 01:18:21
Дата пометки : UTC 2010-12-17 03:01:00

Аудио #2
Идентификатор : 3
Формат : AAC
Формат/Информация : Advanced Audio Codec
Профиль формата : LC
Идентификатор кодека : 40
Продолжительность : 43 м.
Вид битрейта : Переменный
Битрейт : 128 Кбит/сек
Максимальный битрейт : 183 Кбит/сек
Канал(ы) : 2 канала(ов)
Расположение каналов : Front: L R
Частота : 48,0 КГц
Метод сжатия : С потерями
Размер потока : 40,2 Мбайт (4%)
Язык : Russian
Дата кодирования : UTC 2010-12-17 01:18:21
Дата пометки : UTC 2010-12-17 03:01:00

Аудио #3
Идентификатор : 4
Формат : AAC
Формат/Информация : Advanced Audio Codec
Профиль формата : LC
Идентификатор кодека : 40
Продолжительность : 43 м.
Вид битрейта : Переменный
Битрейт : 128 Кбит/сек
Максимальный битрейт : 249 Кбит/сек
Канал(ы) : 2 канала(ов)
Расположение каналов : Front: L R
Частота : 48,0 КГц
Метод сжатия : С потерями
Размер потока : 40,1 Мбайт (4%)
Язык : English
Дата кодирования : UTC 2010-12-17 01:18:21
Дата пометки : UTC 2010-12-17 03:01:00

Текст #1
Идентификатор : 5
Формат : Timed text
Режим смешивания : sbtl
Идентификатор кодека : tx3g
Продолжительность : 43 м.
Вид битрейта : Переменный
Битрейт : 171 бит/сек
Размер потока : 53,9 Кбайт (0%)
Язык : Russian
Дата кодирования : UTC 2010-12-17 01:18:21
Дата пометки : UTC 2010-12-17 03:00:31

Текст #2
Идентификатор : 6
Формат : Timed text
Режим смешивания : sbtl
Идентификатор кодека : tx3g
Продолжительность : 43 м.
Вид битрейта : Переменный
Битрейт : 100 бит/сек
Размер потока : 31,4 Кбайт (0%)
Язык : English
Дата кодирования : UTC 2010-12-17 01:18:21
Дата пометки : UTC 2010-12-17 03:00:32[/spoiler]

[spoiler="Скриншоты:"]
[url=http://fastpic.ru/view/19/2011/0408/ef13f1577a91c86a17d916a2f7ba3c57.png.html][img]http://i19.fastpic.ru/thumb/2011/0408/57/ef13f1577a91c86a17d916a2f7ba3c57.jpeg[/img][/url] [url=http://fastpic.ru/view/19/2011/0408/2619e86b1bfa85c28a32adc1b1ef83cb.png.html][img]http://i19.fastpic.ru/thumb/2011/0408/cb/2619e86b1bfa85c28a32adc1b1ef83cb.jpeg[/img][/url] [url=http://fastpic.ru/view/19/2011/0408/9a7b0734664329559baab9263af57d9b.png.html][img]http://i19.fastpic.ru/thumb/2011/0408/9b/9a7b0734664329559baab9263af57d9b.jpeg[/img][/url] [url=http://fastpic.ru/view/19/2011/0408/1fc89f52b2939b246c7555034979c166.png.html][img]http://i19.fastpic.ru/thumb/2011/0408/66/1fc89f52b2939b246c7555034979c166.jpeg[/img][/url] [url=http://fastpic.ru/view/19/2011/0408/d281a3bc3d76eb03bb5f9bf88fd9024a.png.html][img]http://i19.fastpic.ru/thumb/2011/0408/4a/d281a3bc3d76eb03bb5f9bf88fd9024a.jpeg[/img][/url] [url=http://fastpic.ru/view/19/2011/0408/6c74c55f689838531bc133748e6a14d5.png.html][img]http://i19.fastpic.ru/thumb/2011/0408/d5/6c74c55f689838531bc133748e6a14d5.jpeg[/img][/url][/spoiler]
[url=http://multi-up.com/467590][img]http://img2.immage.de/3003bfbsemple.jpg[/img][/url]
[hr][/hr]
[b]СЕЗОН: 5[/b]
[spoiler="Список серий:"]
1 серия - Смерть меняет всё (Dying Changes Everything)
2 серия - Не рак (Not Cancer)
3 серия - Осложнения (Adverse Events)
4 серия - Родимые пятна (Birthmarks)
5 серия - Счастливое число 13 (Lucky Thirteen)
6 серия - Джой (Joy)
7 серия - Зуд (The Itch)
8 cерия - Независимость (Emancipation)
9 cерия - Последнее средство (Last Resort)
10 серия - Пусть едят пирожные (Let Them Eat Cake)
11 cерия - Радуйся, мир! (Joy To The World)
12 cерия - Без боли (Painless)
13 cерия - Большой ребёнок (Big Baby)
14 серия - Высшее благо (The Greater Good)
15 cерия - Неверующий (Unfaithful)
16 серия - Лучшая половина (The Softer Side)
17 серия - Общественный договор (The Social Contract)
18 cерия - Кис-кис-кис (Here Kitty)
19 серия - Взаперти (Locked In)
20 cерия - Простое объяснение (Simple Explanation)
21 серия - Спасители (Saviors)
22 серия - Разброд и шатание (House Divided)[/spoiler]
[spoiler="MediaInfo:"]
Общее
Формат : MPEG-4
Профиль формата : Base Media / Version 2
Идентификатор кодека : mp42
Размер файла : 727 Мбайт
Продолжительность : 44 м.
Общий поток : 2308 Кбит/сек
Название фильма : Счастливое число 13
Альбом : Доктор Хаус
Часть/Положение : 5
Часть/Всего : 0
Дорожка/Положение : 5
Дорожка/Всего : 24
Исполнитель : Дэвид Шор
Жанр : Drama
Дата записи : 2008
Дата кодирования : UTC 2010-12-18 21:08:51
Дата пометки : UTC 2010-12-30 16:10:34
Программа кодирования : HandBrake svn3688 2010112901
Правообладатель : Altruist
Обложка : Yes
iTunMOVI : / / / / cast / / / name / Хью Лори / / / name / Лиза Эдельcтейн / / / name / Омар Эппс / / / name / Роберт Шон Леонард / / / name / Дженнифер Моррисон / / / name / Джесси Спенсер / / / name / Кэл Пэнн / / / name / Оливия Уайлд / / / name / Питер Джейкобсон / / / directors / / / name / Деран Сэрафьян / / / name / Брайан Сингер / / / name / Дэниэл Сэкхайм / / / name / Дэниэл Эттиэс / / / name / Питер О'Фэллон / / / /
tvsh : Доктор Хаус
tven : 505
tvsn : 5
tves : 5
desc : Сериал House, M.D. рассказывает о команде врачей, возглавляемых доктором Грегори Хаусом, которые должны правильно поставить диагноз пациенту и спасти его.
ldes : Доктор Грегори Хауз (Хью Лори) не отличается проникновенностью в общении с больными и с удовольствием избегает их, если только есть возможность. Он сам всё время проводит в борьбе с собственной болью, а трость в его руке только подчеркивает его жесткую ядовитую манеру общения. Порой его поведение можно назвать почти бесчеловечным, (Мама, а кто это ? Это сынок - подонок, который спас тебе жизнь. ) и при этом он прекрасный врач, обладаюший нетипичным умом и безупречным инстинктом, что снискало ему глубокое уважение. Будучи инфекционистом, он ещё и замечательный диагност, который любит разгадывать медицинские загадки, чтобы спасти кому-то жизнь.
hdvd : 1
stik : 10

Видео
Идентификатор : 1
Формат : AVC
Формат/Информация : Advanced Video Codec
Профиль формата : High@L3.1
Параметр CABAC формата : Да
Параметр ReFrames формата : 10 кадры
Параметры GOP формата : M=1, N=48
Идентификатор кодека : avc1
Идентификатор кодека/Информация : Advanced Video Coding
Продолжительность : 44 м.
Вид битрейта : Переменный
Битрейт : 1915 Кбит/сек
Ширина : 1280 пикс.
Высота : 720 пикс.
Соотношение сторон : 16:9
Режим частоты кадров : Переменный
Частота кадров : 23,976 кадр/сек
Минимальная частота кадров : 23,810 кадр/сек
Максимальная частота кадров : 24,390 кадр/сек
Цветовое пространство : YUV
Подвыборка цветности : 4:2:0
Битовая глубина : 8 бит
Тип развёртки : Прогрессивная
Бит/(Пиксели*Кадры) : 0.087
Размер потока : 603 Мбайт (83%)
Библиотека кодирования : x264 core 107
Настройки программы : cabac=1 / ref=10 / deblock=1:-2:-2 / analyse=0x3:0x133 / me=umh / subme=10 / psy=1 / psy_rd=0.50:0.20 / mixed_ref=1 / me_range=64 / chroma_me=1 / trellis=2 / 8x8dct=1 / cqm=0 / deadzone=21,11 / fast_pskip=0 / chroma_qp_offset=-3 / threads=18 / sliced_threads=0 / nr=0 / decimate=1 / interlaced=0 / constrained_intra=0 / bframes=10 / b_pyramid=2 / b_adapt=2 / b_bias=0 / direct=3 / weightb=0 / open_gop=0 / weightp=2 / keyint=240 / keyint_min=23 / scenecut=40 / intra_refresh=0 / rc_lookahead=40 / rc=crf / mbtree=1 / crf=20.0 / qcomp=0.60 / qpmin=10 / qpmax=51 / qpstep=4 / ip_ratio=1.40 / aq=1:1.00
Дата кодирования : UTC 2010-12-18 21:08:51
Дата пометки : UTC 2010-12-18 22:56:12
Основные цвета : BT.709-5, BT.1361, IEC 61966-2-4, SMPTE RP177
Характеристики трансфера : BT.709-5, BT.1361
Коэффициенты матрицы : BT.709-5, BT.1361, IEC 61966-2-4 709, SMPTE RP177

Аудио #1
Идентификатор : 2
Формат : AAC
Формат/Информация : Advanced Audio Codec
Профиль формата : LC
Идентификатор кодека : 40
Продолжительность : 44 м.
Вид битрейта : Переменный
Битрейт : 128 Кбит/сек
Максимальный битрейт : 247 Кбит/сек
Канал(ы) : 2 канала(ов)
Расположение каналов : Front: L R
Частота : 48,0 КГц
Метод сжатия : С потерями
Размер потока : 40,3 Мбайт (6%)
Язык : Russian
Дата кодирования : UTC 2010-12-18 21:08:51
Дата пометки : UTC 2010-12-18 22:56:11

Аудио #2
Идентификатор : 3
Формат : AAC
Формат/Информация : Advanced Audio Codec
Профиль формата : LC
Идентификатор кодека : 40
Продолжительность : 44 м.
Вид битрейта : Переменный
Битрейт : 128 Кбит/сек
Максимальный битрейт : 275 Кбит/сек
Канал(ы) : 2 канала(ов)
Расположение каналов : Front: L R
Частота : 48,0 КГц
Метод сжатия : С потерями
Размер потока : 40,3 Мбайт (6%)
Язык : Russian
Дата кодирования : UTC 2010-12-18 21:08:51
Дата пометки : UTC 2010-12-18 22:56:11

Аудио #3
Идентификатор : 4
Формат : AAC
Формат/Информация : Advanced Audio Codec
Профиль формата : LC
Идентификатор кодека : 40
Продолжительность : 44 м.
Вид битрейта : Переменный
Битрейт : 128 Кбит/сек
Максимальный битрейт : 232 Кбит/сек
Канал(ы) : 2 канала(ов)
Расположение каналов : Front: L R
Частота : 48,0 КГц
Метод сжатия : С потерями
Размер потока : 40,3 Мбайт (6%)
Язык : English
Дата кодирования : UTC 2010-12-18 21:08:51
Дата пометки : UTC 2010-12-18 22:56:11

Текст
Идентификатор : 5
Формат : Timed text
Режим смешивания : sbtl
Идентификатор кодека : tx3g
Продолжительность : 43 м.
Вид битрейта : Переменный
Битрейт : 165 бит/сек
Размер потока : 52,2 Кбайт (0%)
Язык : Russian
Дата кодирования : UTC 2010-12-18 21:08:51
Дата пометки : UTC 2010-12-18 22:55:17[/spoiler]
[spoiler="Скриншоты:"]
[url=http://fastpic.ru/view/19/2011/0408/ae251eb3ee18907003293307eaf58646.png.html][img]http://i19.fastpic.ru/thumb/2011/0408/46/ae251eb3ee18907003293307eaf58646.jpeg[/img][/url] [url=http://fastpic.ru/view/19/2011/0408/527af60985ef0717b310caaaaf35fb09.png.html][img]http://i19.fastpic.ru/thumb/2011/0408/09/527af60985ef0717b310caaaaf35fb09.jpeg[/img][/url] [url=http://fastpic.ru/view/19/2011/0408/abb4a10e2551fbbb54aad6008420d158.png.html][img]http://i19.fastpic.ru/thumb/2011/0408/58/abb4a10e2551fbbb54aad6008420d158.jpeg[/img][/url] [url=http://fastpic.ru/view/19/2011/0408/89c4f5f1c8ad3377ba32d76a70a80e10.png.html][img]http://i19.fastpic.ru/thumb/2011/0408/10/89c4f5f1c8ad3377ba32d76a70a80e10.jpeg[/img][/url] [url=http://fastpic.ru/view/19/2011/0408/5a3f4f8725dd9fd47217b50c6799d82a.png.html][img]http://i19.fastpic.ru/thumb/2011/0408/2a/5a3f4f8725dd9fd47217b50c6799d82a.jpeg[/img][/url] [url=http://fastpic.ru/view/19/2011/0408/c61badf784b5f670a1f5ffd02cf6e49e.png.html][img]http://i19.fastpic.ru/thumb/2011/0408/9e/c61badf784b5f670a1f5ffd02cf6e49e.jpeg[/img][/url][/spoiler]
[url=http://multi-up.com/467592][img]http://img2.immage.de/3003bfbsemple.jpg[/img][/url]
[hr][/hr]
[b]СЕЗОН: 6[/b]
[spoiler="Список серий:"]
1 серия - Сломанный, часть 1 (Broken, Pt. 1)
2 серия - Сломанный, часть 2 (Broken, Pt. 2)
3 серия - Великое падение (Epic Fail)
4 серия - Тиран (The Tyrant)
5 серия - Карма в действии (Instant Karma)
6 серия - Храброе сердце (Brave Heart)
7 серия - Известные неизвестные (Known Unknowns)
8 cерия - Командная игра (Teamwork)
9 cерия - Счастье в неведении (Ignorance is Bliss)
10 серия - Уилсон (Wilson)
11 cерия - Под прикрытием (The Down Low)
12 cерия - Муки Совести (Remorse)
13 cерия - На новый рубеж (Moving the Chains)
14 серия - С 5 до 9 (5 to 9)
15 cерия - Частная жизнь (Private Lives)
16 серия - Черная дыра (Black Hole)
17 серия - Изоляция (Lockdown)
18 cерия - Падение рыцаря (Knight Fall)
19 серия - Свобода на час (Open and Shut)
20 cерия - Выбор (The Choice)
21 серия - Багаж (Baggage)
22 серия - Помогите мне (Help Me)[/spoiler]

[spoiler="MediaInfo:"]
Общее
Формат : MPEG-4
Профиль формата : Base Media / Version 2
Идентификатор кодека : mp42
Размер файла : 744 Мбайт
Продолжительность : 43 м.
Общий поток : 2371 Кбит/сек
Название фильма : Храброе сердце
Альбом : Доктор Хаус
Часть/Положение : 6
Часть/Всего : 0
Дорожка/Положение : 6
Дорожка/Всего : 22
Исполнитель : Дэвид Шор
Жанр : Drama
Дата записи : 2009
Дата кодирования : UTC 2010-12-27 02:37:33
Дата пометки : UTC 2010-12-30 19:02:08
Программа кодирования : HandBrake svn3688 2010112901
Правообладатель : Altruist
Обложка : Yes
iTunMOVI : / / / / cast / / / name / Хью Лори / / / name / Лиза Эдельcтейн / / / name / Омар Эппс / / / name / Роберт Шон Леонард / / / name / Дженнифер Моррисон / / / name / Джесси Спенсер / / / name / Кэл Пэнн / / / name / Оливия Уайлд / / / name / Питер Джейкобсон / / / directors / / / name / Деран Сэрафьян / / / name / Брайан Сингер / / / name / Дэниэл Сэкхайм / / / name / Дэниэл Эттиэс / / / name / Питер О'Фэллон / / / /
tvsh : Доктор Хаус
tven : 606
tvsn : 6
tves : 6
desc : Сериал House, M.D. рассказывает о команде врачей, возглавляемых доктором Грегори Хаусом, которые должны правильно поставить диагноз пациенту и спасти его.
ldes : Доктор Грегори Хауз (Хью Лори) не отличается проникновенностью в общении с больными и с удовольствием избегает их, если только есть возможность. Он сам всё время проводит в борьбе с собственной болью, а трость в его руке только подчеркивает его жесткую ядовитую манеру общения. Порой его поведение можно назвать почти бесчеловечным, (Мама, а кто это ? Это сынок - подонок, который спас тебе жизнь. ) и при этом он прекрасный врач, обладаюший нетипичным умом и безупречным инстинктом, что снискало ему глубокое уважение. Будучи инфекционистом, он ещё и замечательный диагност, который любит разгадывать медицинские загадки, чтобы спасти кому-то жизнь.
hdvd : 1
stik : 10

Видео
Идентификатор : 1
Формат : AVC
Формат/Информация : Advanced Video Codec
Профиль формата : High@L3.1
Параметр CABAC формата : Да
Параметр ReFrames формата : 10 кадры
Идентификатор кодека : avc1
Идентификатор кодека/Информация : Advanced Video Coding
Продолжительность : 43 м.
Вид битрейта : Переменный
Битрейт : 1977 Кбит/сек
Ширина : 1280 пикс.
Высота : 720 пикс.
Соотношение сторон : 16:9
Режим частоты кадров : Переменный
Частота кадров : 23,976 кадр/сек
Минимальная частота кадров : 23,810 кадр/сек
Максимальная частота кадров : 24,390 кадр/сек
Цветовое пространство : YUV
Подвыборка цветности : 4:2:0
Битовая глубина : 8 бит
Тип развёртки : Прогрессивная
Бит/(Пиксели*Кадры) : 0.089
Размер потока : 620 Мбайт (83%)
Библиотека кодирования : x264 core 107
Настройки программы : cabac=1 / ref=10 / deblock=1:-2:-2 / analyse=0x3:0x133 / me=umh / subme=10 / psy=1 / psy_rd=1.00:0.00 / mixed_ref=1 / me_range=64 / chroma_me=1 / trellis=2 / 8x8dct=1 / cqm=0 / deadzone=21,11 / fast_pskip=0 / chroma_qp_offset=-2 / threads=18 / sliced_threads=0 / nr=0 / decimate=1 / interlaced=0 / constrained_intra=0 / bframes=10 / b_pyramid=2 / b_adapt=2 / b_bias=0 / direct=3 / weightb=0 / open_gop=0 / weightp=2 / keyint=240 / keyint_min=23 / scenecut=40 / intra_refresh=0 / rc_lookahead=40 / rc=crf / mbtree=1 / crf=20.0 / qcomp=0.60 / qpmin=10 / qpmax=51 / qpstep=4 / ip_ratio=1.40 / aq=1:1.00
Дата кодирования : UTC 2010-12-27 02:37:33
Дата пометки : UTC 2010-12-27 04:08:59
Основные цвета : BT.709-5, BT.1361, IEC 61966-2-4, SMPTE RP177
Характеристики трансфера : BT.709-5, BT.1361
Коэффициенты матрицы : BT.709-5, BT.1361, IEC 61966-2-4 709, SMPTE RP177

Аудио #1
Идентификатор : 2
Формат : AAC
Формат/Информация : Advanced Audio Codec
Профиль формата : LC
Идентификатор кодека : 40
Продолжительность : 43 м.
Вид битрейта : Переменный
Битрейт : 128 Кбит/сек
Максимальный битрейт : 181 Кбит/сек
Канал(ы) : 2 канала(ов)
Расположение каналов : Front: L R
Частота : 48,0 КГц
Метод сжатия : С потерями
Размер потока : 40,2 Мбайт (5%)
Язык : Russian
Дата кодирования : UTC 2010-12-27 02:37:33
Дата пометки : UTC 2010-12-27 04:08:59

Аудио #2
Идентификатор : 3
Формат : AAC
Формат/Информация : Advanced Audio Codec
Профиль формата : LC
Идентификатор кодека : 40
Продолжительность : 43 м.
Вид битрейта : Переменный
Битрейт : 128 Кбит/сек
Максимальный битрейт : 226 Кбит/сек
Канал(ы) : 2 канала(ов)
Расположение каналов : Front: L R
Частота : 48,0 КГц
Метод сжатия : С потерями
Размер потока : 40,1 Мбайт (5%)
Язык : Russian
Дата кодирования : UTC 2010-12-27 02:37:33
Дата пометки : UTC 2010-12-27 04:08:59

Аудио #3
Идентификатор : 4
Формат : AAC
Формат/Информация : Advanced Audio Codec
Профиль формата : LC
Идентификатор кодека : 40
Продолжительность : 43 м.
Вид битрейта : Переменный
Битрейт : 128 Кбит/сек
Максимальный битрейт : 250 Кбит/сек
Канал(ы) : 2 канала(ов)
Расположение каналов : Front: L R
Частота : 48,0 КГц
Метод сжатия : С потерями
Размер потока : 40,1 Мбайт (5%)
Язык : English
Дата кодирования : UTC 2010-12-27 02:37:33
Дата пометки : UTC 2010-12-27 04:08:59

Текст #1
Идентификатор : 5
Формат : Timed text
Режим смешивания : sbtl
Идентификатор кодека : tx3g
Продолжительность : 43 м.
Вид битрейта : Переменный
Битрейт : 103 бит/сек
Размер потока : 32,8 Кбайт (0%)
Язык : English
Дата кодирования : UTC 2010-12-27 02:37:33
Дата пометки : UTC 2010-12-27 04:08:49

Текст #2
Идентификатор : 6
Формат : Timed text
Режим смешивания : sbtl
Идентификатор кодека : tx3g
Продолжительность : 43 м.
Вид битрейта : Переменный
Битрейт : 145 бит/сек
Размер потока : 45,9 Кбайт (0%)
Язык : Russian
Дата кодирования : UTC 2010-12-27 02:37:33
Дата пометки : UTC 2010-12-27 04:08:31[/spoiler]

[spoiler="Скриншоты:"]
[url=http://fastpic.ru/view/19/2011/0408/4f0e6e54926d7ab5c59231d000021de7.png.html][img]http://i19.fastpic.ru/thumb/2011/0408/e7/4f0e6e54926d7ab5c59231d000021de7.jpeg[/img][/url] [url=http://fastpic.ru/view/19/2011/0408/1c57867d2a187c33b2094759165af6c0.png.html][img]http://i19.fastpic.ru/thumb/2011/0408/c0/1c57867d2a187c33b2094759165af6c0.jpeg[/img][/url] [url=http://fastpic.ru/view/19/2011/0408/ae7fa0fda3c842c34007ae44f7fdaa11.png.html][img]http://i19.fastpic.ru/thumb/2011/0408/11/ae7fa0fda3c842c34007ae44f7fdaa11.jpeg[/img][/url] [url=http://fastpic.ru/view/19/2011/0408/ebbb8a50cd4474ca57792aa552fde8a0.png.html][img]http://i19.fastpic.ru/thumb/2011/0408/a0/ebbb8a50cd4474ca57792aa552fde8a0.jpeg[/img][/url] [url=http://fastpic.ru/view/19/2011/0408/6a736a8b2c87a1cdf767452989e738a7.png.html][img]http://i19.fastpic.ru/thumb/2011/0408/a7/6a736a8b2c87a1cdf767452989e738a7.jpeg[/img][/url] [url=http://fastpic.ru/view/19/2011/0408/11e95e8faecc3daa3cb8c79bff6b7821.png.html][img]http://i19.fastpic.ru/thumb/2011/0408/21/11e95e8faecc3daa3cb8c79bff6b7821.jpeg[/img][/url][/spoiler]
[url=http://multi-up.com/467591][img]http://img2.immage.de/3003bfbsemple.jpg[/img][/url]

[hr][/hr][spoiler="Как закачать отдельный файл из раздачи"]
[color=#dd0000] [b]В клиенте utorrent[/b][/color]
1) Открыть торрент
2) Снять галки с тех файлов торрента, которые Вы не хотите закачивать:
-либо вручную, снимая с каждого файла галку
-либо, нажав кнопку "Снять метки (Select None)", сняв сразу со всех файлов
3) Ставите галочки только на нужных Вам файлах (файле)
4) Нажимаете ОК
***********************************************************************************
[color=#dd0000] [b]В клиенте BitComet[/b][/color]
1) Открыть торрент
2) Снять галки с тех файлов торрента, которые Вы не хотите закачивать:
-либо вручную, снимая с каждого файла галку
-либо нажав кнопку "Select All/Unse", (снимая сразу со всех файлов)
3) Ставите галочки только на нужных Вам файлах (файле)
4) Нажимаете ОК
***********************************************************************************
[color=#dd0000] [b]В клиенте BitSpirit[/b][/color]
1) Открыть торрент и перейти на вкладку "Опции файла (File Options)"
2) Снять галки с тех файлов торрента, которые Вы не хотите закачивать:
-либо вручную, снимая с каждого файла галку
-либо нажав кнопку "Переставить (Invert Selection)",(снимая сразу со всех файлов)
3)Оставляем только на нужных нам файлах (файле)
4) Нажимаете ОК
***********************************************************************************
[color=#dd0000][b] В клиенте Azureus[/b][/color]
1) Открыть торрент
2) Нажать кнопку "Выделить все (Select All)", а затем нажать "Снять пометку с выделенных (Unmark Selected)"
3) Проставляете галки на тех файлах (файле) , которые(ый) Вам нужны
4) Нажимаете ОК
[/spoiler]
[hr][/hr]
[color=blue][b]Релиз от:[/b][/color]
[img]http://i20.fastpic.ru/big/2011/0430/6f/d0736f42f0e3bef0eba90e32a02b5f6f.png[/img]
[hr][/hr]
[img]http://img6.immage.de/3003484.gif[/img]



   Похожие торренты   Торрент   Размер 
В этой теме нет новых непрочитанных сообщений. Доктор Хаус / House, M.D.[S01-08] (2004-2012) WEB-DLRip | P | Домашний

57 | 287

141.35 ГБ

В этой теме нет новых непрочитанных сообщений. Доктор Хаус / House M.D. [S01-06] (2004-2009) DVDRip от Домашний

12 | 31

46.94 ГБ

В этой теме нет новых непрочитанных сообщений. Доктор Хаус / House M.D. [S01-08] (2004-2012) WEB-DLRip от LostFilm

37 | 47

62.53 ГБ

В этой теме нет новых непрочитанных сообщений. Доктор Хаус / House M.D. [S01] (2004-2005) WEB-DLRip от LostFilm

86 | 32

12.38 ГБ

В этой теме нет новых непрочитанных сообщений. Доктор Хаус / House M.D. [S07] (2011) WEB-DLRip от Домашний

6 | 5

10.03 ГБ

В этой теме нет новых непрочитанных сообщений. Доктор Хаус / House M.D. [S01-05] (2004-2008) WEB-DLRip от Generalfilm | КПК | LostFilm

16 | 34

21.39 ГБ

В этой теме нет новых непрочитанных сообщений. Доктор Хаус / House M.D. [S01-08+Special] (2004-2012) WEB-DLRip от LostFilm

474 | 1388

62.88 ГБ




Вы не можете начинать темы
Вы не можете отвечать на сообщения
Вы не можете редактировать свои сообщения
Вы не можете удалять свои сообщения
Вы не можете добавлять вложения

Перейти:  
Для Мосгорсуда, Роскомнадзора и рекламодателей: mosgorsud-torrent[собачка]yandex.ru
 Вход
ppkBB3cker v.2 © 2008-2014 @ PPK
[ Time : 0.067s | 14 Queries | GZIP : Off ]

Торрент трекер RUTOR.IN, Не можете зайти на rutor.org? Какой новый адрес рутор? Какое зеркало рутор? Не работает rutor.org и зеркала? Тогда наш торрент специально для вас. Rutor.in неофициальное зеркало rutor. В случае если у Вас заблокирован rutor или вдруг Вы не можете на него зайти, то Вы без труда сможете скачать бесплатно и без рекламы последние новинки кино, игр, сериалов и прочего у нас, на Rutor.in. Не нужно использовать прокси, чтобы зайти на рутор, достаточно воспользоваться нашим ресурсом. Все новые фильмы, игры, сериалы, книги и музыка за 2013 и 2014 годы через торрент бесплатно. Скачивайте фильмы в хорошем качестве, игры для пк, xbox, playstation без регистрации. У нас вы найдете новые Зарубежные сериалы и Русские сериалы 2013, 2014, 2015 годов. Оставайтесь с нами, качайте любимые фильмы, игры, сериалы, книги и музыку.