img image001 image001 image001 image001 image001 image001 image001 image001 image001 image001 image001 image001 image001 image001 image001

Planets Sun Sun Sun
Статистика раздачи
Автор: Снежана | Размер: 4.24 ГБ | Добавлен: 25 июл 2013
Раздают: 7    Качают: 4
Скачать торрент
Скачать торрент
Описание торрента

СообщениеДобавлено: 25 июл 2013 

#77

Информация о фильме
Название: Баллада о Бомбере
Оригинальное название: Оригинальное название (для иностранных фильмов)
Год выхода: 2011
Жанр: Военный
Режиссер: Виталий Воробьев
В ролях: Екатерина Астахова, Никита Ефремов, Александр Давыдов (II), Виктория Толстоганова, Нина Усатова, Владимир Ильин, Борис Каморзин, Тимофей Трибунцев, Егор Баринов, Владислав Абашин, Юрий Гурьев, Андрей Гусев, Евгений Ефремов, Сергей Калантай, Алексей Шемес

О фильме:
Во время Второй мировой войны на территории, оккупированной немцами, разбивается советский самолет, но летевшие в нем на задание летчик Гривцов и его возлюбленная радистка Катя чудом спасаются. Удалось выжить и штурману Линько. Каждому из них теперь придется найти свой путь, чтобы выполнить боевое задание, вернуться к своим, и выжить…
Страна: Россия / Украина
Студия: Film.UA / Шпиль
Продолжительность: 8 x ~ 00:51:00
Перевод: Не требуется

Файл
Кодек: MPEG2
Качество: DVD-5
Видео: 720x576 (16:9) 25.00fps 1 219kbps
Звук: Dolby AC3 48000Hz stereo 192kbps

: источник 2 x DVD-9,убрано слишком длинное меню и сжат битрейт
запись на болванку dvd - 5

General
Complete name : F:Баллада о БомбереVIDEO_TSVTS_01_1.VOB
Format : MPEG-PS
File size : 520 MiB
Duration : 50mn 27s
Overall bit rate : 1 440 Kbps

Video
ID : 224 (0xE0)
Format : MPEG Video
Format version : Version 2
Format profile : Main@Main
Format settings, BVOP : Yes
Format settings, Matrix : Default
Format settings, GOP : M=3, N=13
Duration : 50mn 27s
Bit rate mode : Variable
Bit rate : 1 219 Kbps
Nominal bit rate : 9 008 Kbps
Width : 720 pixels
Height : 576 pixels
Display aspect ratio : 16:9
Frame rate : 25.000 fps
Standard : PAL
Color space : YUV
Chroma subsampling : 4:2:0
Bit depth : 8 bits
Scan type : Progressive
Compression mode : Lossy
Bits/(Pixel*Frame) : 0.118
Stream size : 440 MiB (85%)

Audio
ID : 189 (0xBD)-128 (0x80)
Format : AC-3
Format/Info : Audio Coding 3
Mode extension : CM (complete main)
Muxing mode : DVD-Video
Duration : 50mn 27s
Bit rate mode : Constant
Bit rate : 192 Kbps
Channel(s) : 2 channels
Channel positions : Front: L R
Sampling rate : 48.0 KHz
Bit depth : 16 bits
Compression mode : Lossy
Stream size : 69.3 MiB (13%)











Релиз от:



   Похожие торренты   Торрент   Размер 
В этой теме нет новых непрочитанных сообщений. Баллада о Бомбере [01-08 из 08] (2011) 3xDVD5

2 | 6

12.38 ГБ

В этой теме нет новых непрочитанных сообщений. Баллада о Бомбере [01-08 из 08] (2011) DVDRip

133 | 19

5.47 ГБ

В этой теме нет новых непрочитанных сообщений. Баллада о Бомбере [01-08 из 08] (2011) 2xDVD9

0 | 4

15.24 ГБ

В этой теме нет новых непрочитанных сообщений. Баллада о Бомбере [01-08 из 08] (2011) DVDRip-AVC

9 | 4

6.65 ГБ

В этой теме нет новых непрочитанных сообщений. Баллада о бомбере (2011) BDRip-AVC от R.G. AVI | AVC

34 | 3

3.25 ГБ

В этой теме нет новых непрочитанных сообщений. Баллада о бомбере [01-08 из 08] (2011) WEB-DLRip-AVC от ExKinoRay

257 | 41

5.87 ГБ

В этой теме нет новых непрочитанных сообщений. Баллада о бомбере [01-08 из 08] (2011) WEB-DL 1080p от MediaClub

32 | 50

9.21 ГБ




Вы не можете начинать темы
Вы не можете отвечать на сообщения
Вы не можете редактировать свои сообщения
Вы не можете удалять свои сообщения
Вы не можете добавлять вложения

Перейти:  
Для Мосгорсуда, Роскомнадзора и рекламодателей: mosgorsud-torrent[собачка]yandex.ru
 Вход
ppkBB3cker v.2 © 2008-2014 @ PPK
[ Time : 1.589s | 14 Queries | GZIP : On ]

Торрент трекер RUTOR.IN, Не можете зайти на rutor.org? Какой новый адрес рутор? Какое зеркало рутор? Не работает rutor.org и зеркала? Тогда наш торрент специально для вас. Rutor.in неофициальное зеркало rutor. В случае если у Вас заблокирован rutor или вдруг Вы не можете на него зайти, то Вы без труда сможете скачать бесплатно и без рекламы последние новинки кино, игр, сериалов и прочего у нас, на Rutor.in. Не нужно использовать прокси, чтобы зайти на рутор, достаточно воспользоваться нашим ресурсом. Все новые фильмы, игры, сериалы, книги и музыка за 2013 и 2014 годы через торрент бесплатно. Скачивайте фильмы в хорошем качестве, игры для пк, xbox, playstation без регистрации. У нас вы найдете новые Зарубежные сериалы и Русские сериалы 2013, 2014, 2015 годов. Оставайтесь с нами, качайте любимые фильмы, игры, сериалы, книги и музыку.