img image001 image001 image001 image001 image001 image001 image001 image001 image001 image001 image001 image001 image001 image001 image001 image001

Planets Sun Sun Sun
Статистика раздачи
Автор: Снежана | Размер: 1.23 ГБ | Добавлен: 25 июл 2013
Раздают: 7    Качают: 4
Скачать торрент
Скачать торрент
Описание торрента

СообщениеДобавлено: 25 июл 2013 

#77

Информация о фильме
Название: Зайцев+1
Год выхода: 2011
Жанр: Ситком, комедия
Режиссер: Максим Пежемский
В ролях: Филипп Котов, Михаил Галустян, Наталья Костенева, Иван Громов, Александр Солдаткин

Официальный сайт :


О фильме:
Саша Зайцев – московский студент. Он похож на миллионы своих сверстников, но при этом очень отличается от окружающих. С одной стороны, у Саши есть очки, вид затюканного ботаника и неразделенная любовь. С другой стороны, у Саши - раздвоение личности. Нет, он не разговаривает сам с собой в шапочке из фольги. Просто если Сашу бьют по голове, он превращается в Федора, подозрительно похожего на актера Михаила Галустяна. Федор, в отличие от Саши, знает, что делать со своими желаниями - немедленно исполнять! Хочется нахамить соседу? Зажать на вечеринке однокурсницу? Угнать джип? Саша никогда бы на это не решился, если бы в нем периодически не пробуждался Федор. По словам режиссера проекта Максима Пежемского, «Зайцев+1» - это история о том, как от человека сбежало его либидо и живет само по себе: «Мы сняли ситком про пубертатный период студентов, где-то задержавшихся во взрослении, но сексуально озабоченных». «Зайцев +1» гораздо больше похож на кино, чем на традиционный ситком. В нем нет привычной и обычной для этого жанра откровенной театральности и закадрового смеха. Он снят одной камерой. «Интерны» и «Реальные пацаны» вывели жанр ситкома на новый уровень. «Зайцев+1» продолжает это движение. Главную роль – роль Саши Зайцева – играет молодой талантливый актер Филипп Котов. Также главную роль играет Михаил Галустян - он тоже Саша, но только тогда, когда тот становится Федором. Попробуем разобраться без психиатра?

Общее
Полное имя : D:Desire's placeFilmsЗайцев + 1 [iPhone, iPod Touch]Зайцев + 1. (1 Серия).mp4
Формат : MPEG-4
Профиль формата : Base Media
Идентификатор кодека : isom
Размер файла : 105 Мбайт
Продолжительность : 21 м.
Общий поток : 676 Кбит/сек
Дата кодирования : UTC 2011-04-11 12:27:53
Дата пометки : UTC 2011-04-11 12:27:53

Видео
Идентификатор : 1
Формат : AVC
Формат/Информация : Advanced Video Codec
Профиль формата : Baseline@L3.0
Параметр CABAC формата : Нет
Параметр ReFrames формата : 6 кадры
Идентификатор кодека : avc1
Идентификатор кодека/Информация : Advanced Video Coding
Продолжительность : 21 м.
Вид битрейта : Переменный
Битрейт : 545 Кбит/сек
Максимальный битрейт : 1864 Кбит/сек
Ширина : 480 пикс.
Высота : 264 пикс.
Соотношение сторон : 16:9
Режим частоты кадров : Постоянный
Частота кадров : 25,000 кадр/сек
Цветовое пространство : YUV
Подвыборка цветности : 4:2:0
Битовая глубина : 8 бит
Тип развёртки : Прогрессивная
Бит/(Пиксели*Кадры) : 0.172
Размер потока : 85,0 Мбайт (81%)
Заголовок : Imported with GPAC 0.4.6-DEV (build 1)
Библиотека кодирования : x264 core 92 r1510 33d382a
Настройки программы : cabac=0 / ref=6 / deblock=1:-1:-1 / analyse=0x1:0x111 / me=umh / subme=7 / psy=1 / psy_rd=1.00:0.00 / mixed_ref=0 / me_range=16 / chroma_me=1 / trellis=0 / 8x8dct=0 / cqm=0 / deadzone=21,11 / fast_pskip=0 / chroma_qp_offset=-2 / threads=3 / sliced_threads=0 / nr=0 / decimate=1 / interlaced=0 / constrained_intra=0 / bframes=0 / wpredp=0 / keyint=250 / keyint_min=25 / scenecut=40 / intra_refresh=0 / rc_lookahead=60 / rc=crf / mbtree=1 / crf=21.0 / qcomp=0.60 / qpmin=10 / qpmax=51 / qpstep=4 / ip_ratio=1.40 / aq=1:1.00
Дата кодирования : UTC 2011-04-11 12:27:53
Дата пометки : UTC 2011-04-11 12:28:04

Аудио
Идентификатор : 2
Формат : AAC
Формат/Информация : Advanced Audio Codec
Профиль формата : LC
Идентификатор кодека : 40
Продолжительность : 21 м.
Вид битрейта : Переменный
Битрейт : 128 Кбит/сек
Максимальный битрейт : 140 Кбит/сек
Канал(ы) : 2 канала(ов)
Расположение каналов : Front: L R
Частота : 48,0 КГц
Метод сжатия : С потерями
Размер потока : 20,0 Мбайт (19%)
Дата кодирования : UTC 2011-04-11 12:28:02
Дата пометки : UTC 2011-04-11 12:28:04

Страна: Россия
Продолжительность: ~ 24 минуты
Перевод: Оригинал

Файл
Качество: SATRip
Видео кодек: H.264
Аудио кодек: ААС
Видео: 480x264 ~ 500 кбит/с; 25 кадров/с;
Звук: 128 кбит/с; 1 канал; 48 KHz



   Похожие торренты   Торрент   Размер 
В этой теме нет новых непрочитанных сообщений. Зайцев+1 [03x03] (2014) SATRip

0 | 2

240.22 МБ

В этой теме нет новых непрочитанных сообщений. Мук / Mouk [01x01-57, 59-62 из 92] (2011) SATRip

30 | 9

9.34 ГБ

В этой теме нет новых непрочитанных сообщений. VA - Top 100 Зайцев нет (26.09.2014) MP3

3366 | 747

867.78 МБ

В этой теме нет новых непрочитанных сообщений. VA - Top 100 Зайцев нет [15.10.14] (2014) MP3

321 | 19

860.43 МБ

В этой теме нет новых непрочитанных сообщений. VA - Тор 100 Зайцев нет (26.11) (2014) MP3

127 | 9

848.27 МБ

В этой теме нет новых непрочитанных сообщений. VA - Топ 100 Зайцев.Нет [18.12] (2013) MP3

19 | 2

1.01 ГБ

В этой теме нет новых непрочитанных сообщений. VA - Top 100 Зайцев нет [11.10.14] (2014) MP3

1320 | 108

751.85 МБ




Вы не можете начинать темы
Вы не можете отвечать на сообщения
Вы не можете редактировать свои сообщения
Вы не можете удалять свои сообщения
Вы не можете добавлять вложения

Перейти:  
 Вход
ppkBB3cker v.2 © 2008-2014 @ PPK
[ Time : 0.030s | 19 Queries | GZIP : Off ]

cron