img image001 image001 image001 image001 image001 image001 image001 image001 image001 image001 image001 image001 image001 image001 image001

Planets Sun Sun Sun
Статистика раздачи
Автор: Снежана | Размер: 12.35 ГБ | Добавлен: 25 июл 2013
Раздают: 32    Качают: 7
Скачать торрент
Скачать торрент
Описание торрента

СообщениеДобавлено: 25 июл 2013 

#77

Информация о фильме
Название: Иван Грозный
Год выхода: 2009
Жанр: Драма, биография, история
Режиссер: Андрей Эшпай
В ролях: Александр Демидов, Иван Макаревич, Мария Шашлова, Олег Малахов, Александр Андриенко, Александр Серов, Сергей Удовик, Сергей Аброскин, Виктор Запорожский, Зоя Кайдановская.

О фильме:
Эпическое повествование об эпохе объединения разрозненных княжеств феодальной Руси в мощное централизованное государство. В нем не только дана своеобразная интерпретация исторической роли первого самодержца всея Руси Ивана IV, но и показана глубина личной трагедии царя, вступившего в смертельную борьбу с коварным и злобным боярством.
Страна: Россия
Продолжительность: 12:00:00
Перевод: Не требуется

Файл
Качество: DVD9
Формат: DVD-Video
Видео кодек: MPEG2
Аудио кодек: AC3
Видео: PAL 16:9 (720x576) VBR Auto Letterboxed 25.00fps 9800Kbps
Аудио: Russian (Dolby AC3, 2 ch) AC3 48000Hz stereo 96Kbps
Субтитры: Отсутствуют

Общее
Полное имя : E:Иван Грозный 2 DVD9DVD1VIDEO_TSVIDEO_TS.BUP
Формат : DVD Video
Профиль формата : Menu
Размер файла : 14,0 Кбайт

Видео
Идентификатор : 224 (0xE0)
Формат : MPEG Video
Версия формата : Version 2
Вид битрейта : Переменный
Ширина : 720 пикс.
Высота : 576 пикс.
Соотношение сторон : 4:3
Частота кадров : 25,000 кадр/сек
Стандарт вещания : PAL
Метод сжатия : С потерями

Общее
Полное имя : E:Иван Грозный 2 DVD9DVD1VIDEO_TSVIDEO_TS.IFO
Формат : DVD Video
Профиль формата : Menu
Размер файла : 14,0 Кбайт

Видео
Идентификатор : 224 (0xE0)
Формат : MPEG Video
Версия формата : Version 2
Вид битрейта : Переменный
Ширина : 720 пикс.
Высота : 576 пикс.
Соотношение сторон : 4:3
Частота кадров : 25,000 кадр/сек
Стандарт вещания : PAL
Метод сжатия : С потерями

Общее
Полное имя : E:Иван Грозный 2 DVD9DVD1VIDEO_TSVIDEO_TS.VOB
Формат : MPEG-PS
Размер файла : 48,0 Кбайт
Продолжительность : 40 мс.
Общий поток : 9830 Кбит/сек

Видео
Идентификатор : 224 (0xE0)
Формат : MPEG Video
Версия формата : Version 2
Профиль формата : Main@Main
Параметр BVOP формата : Нет
Параметр матрицы формата : По умолчанию
Продолжительность : 40 мс.
Вид битрейта : Переменный
Битрейт : 9000 Кбит/сек
Ширина : 720 пикс.
Высота : 576 пикс.
Соотношение сторон : 4:3
Частота кадров : 25,000 кадр/сек
Стандарт вещания : PAL
Цветовое пространство : YUV
Подвыборка цветности : 4:2:0
Битовая глубина : 8 бит
Тип развёртки : Прогрессивная
Порядок развёртки : Верхнее поле первое
Метод сжатия : С потерями
Бит/(Пиксели*Кадры) : 0.868
Размер потока : 43,9 Кбайт (92%)

Меню

Общее
Полное имя : E:Иван Грозный 2 DVD9DVD1VIDEO_TSVTS_01_0.BUP
Формат : DVD Video
Профиль формата : Program
Размер файла : 248 Кбайт
Продолжительность : 46 м.
Общий поток : 730 бит/сек

Видео
Идентификатор : 224 (0xE0)
Формат : MPEG Video
Версия формата : Version 2
Продолжительность : 46 м.
Вид битрейта : Переменный
Ширина : 720 пикс.
Высота : 576 пикс.
Соотношение сторон : 16:9
Частота кадров : 25,000 кадр/сек
Стандарт вещания : PAL
Метод сжатия : С потерями

Аудио
Идентификатор : 128 (0x80)
Формат : AC-3
Формат/Информация : Audio Coding 3
Продолжительность : 46 м.
Канал(ы) : 2 канала(ов)
Частота : 48,0 КГц
Метод сжатия : С потерями
Язык : English

Меню #1
Продолжительность : 46 м.
00:00:00.000 : Chapter 1
00:04:12.000 : Chapter 2
00:11:42.560 : Chapter 3
00:18:46.880 : Chapter 4
00:24:32.000 : Chapter 5
00:32:22.560 : Chapter 6
00:38:23.520 : Chapter 7
00:43:41.600 : Chapter 8
List (Audio) : 0

Меню #2
Продолжительность : 46 м.
00:00:00.000 : Chapter 1
00:05:16.000 : Chapter 2
00:11:56.480 : Chapter 3
00:17:46.080 : Chapter 4
00:25:29.440 : Chapter 5
00:32:47.360 : Chapter 6
00:37:57.120 : Chapter 7
00:42:56.800 : Chapter 8
List (Audio) : 0

Меню #3
Продолжительность : 45 м.
00:00:00.000 : Chapter 1
00:05:39.680 : Chapter 2
00:11:38.560 : Chapter 3
00:16:51.040 : Chapter 4
00:22:11.840 : Chapter 5
00:29:18.240 : Chapter 6
00:37:18.880 : Chapter 7
00:44:27.200 : Chapter 8
List (Audio) : 0

Меню #4
Продолжительность : 45 м.
00:00:00.000 : Chapter 1
00:05:37.120 : Chapter 2
00:12:03.360 : Chapter 3
00:20:05.760 : Chapter 4
00:23:36.800 : Chapter 5
00:28:05.280 : Chapter 6
00:34:27.840 : Chapter 7
00:41:24.480 : Chapter 8
List (Audio) : 0

Меню #5
Продолжительность : 46 м.
00:00:00.000 : Chapter 1
00:04:19.360 : Chapter 2
00:10:31.520 : Chapter 3
00:19:37.920 : Chapter 4
00:24:17.920 : Chapter 5
00:30:56.800 : Chapter 6
00:39:09.120 : Chapter 7
00:44:05.920 : Chapter 8
List (Audio) : 0

Меню #6
Продолжительность : 45 м.
00:00:00.000 : Chapter 1
00:04:10.400 : Chapter 2
00:09:51.680 : Chapter 3
00:16:12.160 : Chapter 4
00:23:23.680 : Chapter 5
00:31:43.680 : Chapter 6
00:38:05.760 : Chapter 7
00:43:17.760 : Chapter 8
List (Audio) : 0

Меню #7
Продолжительность : 46 м.
00:00:00.000 : Chapter 1
00:04:48.160 : Chapter 2
00:10:14.080 : Chapter 3
00:16:13.920 : Chapter 4
00:23:52.480 : Chapter 5
00:28:09.280 : Chapter 6
00:34:17.120 : Chapter 7
00:40:03.840 : Chapter 8
List (Audio) : 0

Меню #8
Продолжительность : 45 м.
00:00:00.000 : Chapter 1
00:03:56.160 : Chapter 2
00:09:46.080 : Chapter 3
00:20:55.520 : Chapter 4
00:24:41.280 : Chapter 5
00:28:39.520 : Chapter 6
00:35:19.840 : Chapter 7
00:43:02.400 : Chapter 8
List (Audio) : 0

Общее
Полное имя : E:Иван Грозный 2 DVD9DVD1VIDEO_TSVTS_01_0.IFO
Формат : DVD Video
Профиль формата : Program
Размер файла : 248 Кбайт
Продолжительность : 46 м.
Общий поток : 730 бит/сек

Видео
Идентификатор : 224 (0xE0)
Формат : MPEG Video
Версия формата : Version 2
Продолжительность : 46 м.
Вид битрейта : Переменный
Ширина : 720 пикс.
Высота : 576 пикс.
Соотношение сторон : 16:9
Частота кадров : 25,000 кадр/сек
Стандарт вещания : PAL
Метод сжатия : С потерями

Аудио
Идентификатор : 128 (0x80)
Формат : AC-3
Формат/Информация : Audio Coding 3
Продолжительность : 46 м.
Канал(ы) : 2 канала(ов)
Частота : 48,0 КГц
Метод сжатия : С потерями
Язык : English

Меню #1
Продолжительность : 46 м.
00:00:00.000 : Chapter 1
00:04:12.000 : Chapter 2
00:11:42.560 : Chapter 3
00:18:46.880 : Chapter 4
00:24:32.000 : Chapter 5
00:32:22.560 : Chapter 6
00:38:23.520 : Chapter 7
00:43:41.600 : Chapter 8
List (Audio) : 0

Меню #2
Продолжительность : 46 м.
00:00:00.000 : Chapter 1
00:05:16.000 : Chapter 2
00:11:56.480 : Chapter 3
00:17:46.080 : Chapter 4
00:25:29.440 : Chapter 5
00:32:47.360 : Chapter 6
00:37:57.120 : Chapter 7
00:42:56.800 : Chapter 8
List (Audio) : 0

Меню #3
Продолжительность : 45 м.
00:00:00.000 : Chapter 1
00:05:39.680 : Chapter 2
00:11:38.560 : Chapter 3
00:16:51.040 : Chapter 4
00:22:11.840 : Chapter 5
00:29:18.240 : Chapter 6
00:37:18.880 : Chapter 7
00:44:27.200 : Chapter 8
List (Audio) : 0

Меню #4
Продолжительность : 45 м.
00:00:00.000 : Chapter 1
00:05:37.120 : Chapter 2
00:12:03.360 : Chapter 3
00:20:05.760 : Chapter 4
00:23:36.800 : Chapter 5
00:28:05.280 : Chapter 6
00:34:27.840 : Chapter 7
00:41:24.480 : Chapter 8
List (Audio) : 0

Меню #5
Продолжительность : 46 м.
00:00:00.000 : Chapter 1
00:04:19.360 : Chapter 2
00:10:31.520 : Chapter 3
00:19:37.920 : Chapter 4
00:24:17.920 : Chapter 5
00:30:56.800 : Chapter 6
00:39:09.120 : Chapter 7
00:44:05.920 : Chapter 8
List (Audio) : 0

Меню #6
Продолжительность : 45 м.
00:00:00.000 : Chapter 1
00:04:10.400 : Chapter 2
00:09:51.680 : Chapter 3
00:16:12.160 : Chapter 4
00:23:23.680 : Chapter 5
00:31:43.680 : Chapter 6
00:38:05.760 : Chapter 7
00:43:17.760 : Chapter 8
List (Audio) : 0

Меню #7
Продолжительность : 46 м.
00:00:00.000 : Chapter 1
00:04:48.160 : Chapter 2
00:10:14.080 : Chapter 3
00:16:13.920 : Chapter 4
00:23:52.480 : Chapter 5
00:28:09.280 : Chapter 6
00:34:17.120 : Chapter 7
00:40:03.840 : Chapter 8
List (Audio) : 0

Меню #8
Продолжительность : 45 м.
00:00:00.000 : Chapter 1
00:03:56.160 : Chapter 2
00:09:46.080 : Chapter 3
00:20:55.520 : Chapter 4
00:24:41.280 : Chapter 5
00:28:39.520 : Chapter 6
00:35:19.840 : Chapter 7
00:43:02.400 : Chapter 8
List (Audio) : 0

Общее
Полное имя : E:Иван Грозный 2 DVD9DVD1VIDEO_TSVTS_01_0.VOB
Формат : MPEG-PS
Размер файла : 9,25 Мбайт

Видео
Идентификатор : 224 (0xE0)
Формат : MPEG Video
Версия формата : Version 2
Профиль формата : Main@Main
Параметр BVOP формата : Да
Параметр матрицы формата : По умолчанию
Параметры GOP формата : M=3, N=15
Вид битрейта : Переменный
Битрейт : 6000 Кбит/сек
Ширина : 720 пикс.
Высота : 576 пикс.
Соотношение сторон : 16:9
Частота кадров : 25,000 кадр/сек
Стандарт вещания : PAL
Цветовое пространство : YUV
Подвыборка цветности : 4:2:0
Битовая глубина : 8 бит
Тип развёртки : Чересстрочная
Порядок развёртки : Нижнее поле первое
Метод сжатия : С потерями
Бит/(Пиксели*Кадры) : 0.579

Аудио
Идентификатор : 128 (0x80)
Формат : AC-3
Формат/Информация : Audio Coding 3
Расширение режима : CM (complete main)
Вид битрейта : Постоянный
Битрейт : 96,0 Кбит/сек
Канал(ы) : 2 канала(ов)
Расположение каналов : Front: L R
Частота : 48,0 КГц
Битовая глубина : 16 бит
Метод сжатия : С потерями

Текст #1
Идентификатор : 32 (0x20)
Формат : RLE
Формат/Информация : Run-length encoding

Текст #2
Идентификатор : 33 (0x21)
Формат : RLE
Формат/Информация : Run-length encoding

Текст #3
Идентификатор : 34 (0x22)
Формат : RLE
Формат/Информация : Run-length encoding

Меню

Общее
Полное имя : E:Иван Грозный 2 DVD9DVD1VIDEO_TSVTS_01_1.VOB
Формат : MPEG-PS
Размер файла : 1000 Мбайт
Продолжительность : 12 м.
Общий поток : 11,2 Мбит/сек

Видео
Идентификатор : 224 (0xE0)
Формат : MPEG Video
Версия формата : Version 2
Профиль формата : Main@Main
Параметр BVOP формата : Да
Параметр матрицы формата : По умолчанию
Параметры GOP формата : M=4, N=12
Продолжительность : 12 м.
Вид битрейта : Переменный
Битрейт : 10,9 Мбит/сек
Ширина : 480 пикс.
Высота : 576 пикс.
Соотношение сторон : 16:9
Частота кадров : 25,000 кадр/сек
Цветовое пространство : YUV
Подвыборка цветности : 4:2:0
Битовая глубина : 8 бит
Тип развёртки : Прогрессивная
Метод сжатия : С потерями
Бит/(Пиксели*Кадры) : 1.574
Размер потока : 971 Мбайт (97%)

Аудио
Идентификатор : 128 (0x80)
Формат : AC-3
Формат/Информация : Audio Coding 3
Расширение режима : CM (complete main)
Продолжительность : 12 м.
Вид битрейта : Постоянный
Битрейт : 96,0 Кбит/сек
Канал(ы) : 2 канала(ов)
Расположение каналов : Front: L R
Частота : 48,0 КГц
Битовая глубина : 16 бит
Метод сжатия : С потерями
Задержка видео : -120 мс.
Размер потока : 8,57 Мбайт (1%)

Меню

Общее
Полное имя : E:Иван Грозный 2 DVD9DVD1VIDEO_TSVTS_01_2.VOB
Формат : MPEG-PS
Размер файла : 1000 Мбайт
Продолжительность : 10 м.
Общий поток : 12,9 Мбит/сек

Видео
Идентификатор : 224 (0xE0)
Формат : MPEG Video
Версия формата : Version 2
Профиль формата : Main@Main
Параметр BVOP формата : Да
Параметр матрицы формата : По умолчанию
Параметры GOP формата : M=4, N=12
Продолжительность : 10 м.
Вид битрейта : Переменный
Битрейт : 12,6 Мбит/сек
Ширина : 480 пикс.
Высота : 576 пикс.
Соотношение сторон : 16:9
Частота кадров : 25,000 кадр/сек
Цветовое пространство : YUV
Подвыборка цветности : 4:2:0
Битовая глубина : 8 бит
Тип развёртки : Прогрессивная
Метод сжатия : С потерями
Бит/(Пиксели*Кадры) : 1.817
Размер потока : 973 Мбайт (97%)

Аудио
Идентификатор : 128 (0x80)
Формат : AC-3
Формат/Информация : Audio Coding 3
Расширение режима : CM (complete main)
Продолжительность : 10 м.
Вид битрейта : Постоянный
Битрейт : 96,0 Кбит/сек
Канал(ы) : 2 канала(ов)
Расположение каналов : Front: L R
Частота : 48,0 КГц
Битовая глубина : 16 бит
Метод сжатия : С потерями
Задержка видео : -120 мс.
Размер потока : 7,43 Мбайт (1%)

Меню

Общее
Полное имя : E:Иван Грозный 2 DVD9DVD1VIDEO_TSVTS_01_3.VOB
Формат : MPEG-PS
Размер файла : 1000 Мбайт
Продолжительность : 11 м.
Общий поток : 12,7 Мбит/сек

Видео
Идентификатор : 224 (0xE0)
Формат : MPEG Video
Версия формата : Version 2
Профиль формата : Main@Main
Параметр BVOP формата : Да
Параметр матрицы формата : По умолчанию
Параметры GOP формата : M=4, N=12
Продолжительность : 11 м.
Вид битрейта : Переменный
Битрейт : 12,3 Мбит/сек
Ширина : 480 пикс.
Высота : 576 пикс.
Соотношение сторон : 16:9
Частота кадров : 25,000 кадр/сек
Цветовое пространство : YUV
Подвыборка цветности : 4:2:0
Битовая глубина : 8 бит
Тип развёртки : Прогрессивная
Метод сжатия : С потерями
Бит/(Пиксели*Кадры) : 1.783
Размер потока : 972 Мбайт (97%)

Аудио
Идентификатор : 128 (0x80)
Формат : AC-3
Формат/Информация : Audio Coding 3
Расширение режима : CM (complete main)
Продолжительность : 11 м.
Вид битрейта : Постоянный
Битрейт : 96,0 Кбит/сек
Канал(ы) : 2 канала(ов)
Расположение каналов : Front: L R
Частота : 48,0 КГц
Битовая глубина : 16 бит
Метод сжатия : С потерями
Задержка видео : -216 мс.
Размер потока : 7,58 Мбайт (1%)

Меню

Общее
Полное имя : E:Иван Грозный 2 DVD9DVD1VIDEO_TSVTS_01_4.VOB
Формат : MPEG-PS
Размер файла : 1000 Мбайт
Продолжительность : 11 м.
Общий поток : 11,9 Мбит/сек

Видео
Идентификатор : 224 (0xE0)
Формат : MPEG Video
Версия формата : Version 2
Профиль формата : Main@Main
Параметр BVOP формата : Да
Параметр матрицы формата : По умолчанию
Параметры GOP формата : M=4, N=12
Продолжительность : 11 м.
Вид битрейта : Переменный
Битрейт : 11,6 Мбит/сек
Ширина : 480 пикс.
Высота : 576 пикс.
Соотношение сторон : 16:9
Частота кадров : 25,000 кадр/сек
Цветовое пространство : YUV
Подвыборка цветности : 4:2:0
Битовая глубина : 8 бит
Тип развёртки : Прогрессивная
Метод сжатия : С потерями
Бит/(Пиксели*Кадры) : 1.679
Размер потока : 972 Мбайт (97%)

Аудио
Идентификатор : 128 (0x80)
Формат : AC-3
Формат/Информация : Audio Coding 3
Расширение режима : CM (complete main)
Продолжительность : 11 м.
Вид битрейта : Постоянный
Битрейт : 96,0 Кбит/сек
Канал(ы) : 2 канала(ов)
Расположение каналов : Front: L R
Частота : 48,0 КГц
Битовая глубина : 16 бит
Метод сжатия : С потерями
Задержка видео : -56 мс.
Размер потока : 8,04 Мбайт (1%)

Меню

Общее
Полное имя : E:Иван Грозный 2 DVD9DVD1VIDEO_TSVTS_01_5.VOB
Формат : MPEG-PS
Размер файла : 1000 Мбайт
Общий поток : 0

Видео
Идентификатор : 224 (0xE0)
Формат : MPEG Video
Версия формата : Version 2
Профиль формата : Main@Main
Параметр BVOP формата : Да
Параметр матрицы формата : По умолчанию
Параметры GOP формата : M=4, N=12
Вид битрейта : Переменный
Ширина : 480 пикс.
Высота : 576 пикс.
Соотношение сторон : 16:9
Частота кадров : 25,000 кадр/сек
Цветовое пространство : YUV
Подвыборка цветности : 4:2:0
Битовая глубина : 8 бит
Тип развёртки : Прогрессивная
Метод сжатия : С потерями

Аудио
Идентификатор : 128 (0x80)
Формат : AC-3
Формат/Информация : Audio Coding 3
Расширение режима : CM (complete main)
Продолжительность : -33 м.
Вид битрейта : Постоянный
Битрейт : 96,0 Кбит/сек
Канал(ы) : 2 канала(ов)
Расположение каналов : Front: L R
Частота : 48,0 КГц
Битовая глубина : 16 бит
Метод сжатия : С потерями
Задержка видео : -24 мс.
Размер потока : 2,05 ?iB

Меню

Общее
Полное имя : E:Иван Грозный 2 DVD9DVD1VIDEO_TSVTS_01_6.VOB
Формат : MPEG-PS
Размер файла : 1000 Мбайт
Продолжительность : 13 м.
Общий поток : 10,3 Мбит/сек

Видео
Идентификатор : 224 (0xE0)
Формат : MPEG Video
Версия формата : Version 2
Профиль формата : Main@Main
Параметр BVOP формата : Да
Параметр матрицы формата : По умолчанию
Параметры GOP формата : M=4, N=12
Продолжительность : 13 м.
Вид битрейта : Переменный
Битрейт : 10,0 Мбит/сек
Ширина : 480 пикс.
Высота : 576 пикс.
Соотношение сторон : 16:9
Частота кадров : 25,000 кадр/сек
Цветовое пространство : YUV
Подвыборка цветности : 4:2:0
Битовая глубина : 8 бит
Тип развёртки : Прогрессивная
Метод сжатия : С потерями
Бит/(Пиксели*Кадры) : 1.447
Размер потока : 971 Мбайт (97%)

Аудио
Идентификатор : 128 (0x80)
Формат : AC-3
Формат/Информация : Audio Coding 3
Расширение режима : CM (complete main)
Продолжительность : 13 м.
Вид битрейта : Постоянный
Битрейт : 96,0 Кбит/сек
Канал(ы) : 2 канала(ов)
Расположение каналов : Front: L R
Частота : 48,0 КГц
Битовая глубина : 16 бит
Метод сжатия : С потерями
Задержка видео : -152 мс.
Размер потока : 9,32 Мбайт (1%)

Меню

Общее
Полное имя : E:Иван Грозный 2 DVD9DVD1VIDEO_TSVTS_01_7.VOB
Формат : MPEG-PS
Размер файла : 336 Мбайт
Продолжительность : 19 м.
Общий поток : 2379 Кбит/сек

Видео
Идентификатор : 224 (0xE0)
Формат : MPEG Video
Версия формата : Version 2
Профиль формата : Main@Main
Параметр BVOP формата : Да
Параметр матрицы формата : По умолчанию
Параметры GOP формата : M=4, N=12
Продолжительность : 19 м.
Вид битрейта : Переменный
Битрейт : 2235 Кбит/сек
Ширина : 480 пикс.
Высота : 576 пикс.
Соотношение сторон : 16:9
Частота кадров : 25,000 кадр/сек
Цветовое пространство : YUV
Подвыборка цветности : 4:2:0
Битовая глубина : 8 бит
Тип развёртки : Прогрессивная
Метод сжатия : С потерями
Бит/(Пиксели*Кадры) : 0.323
Размер потока : 315 Мбайт (94%)

Аудио
Идентификатор : 128 (0x80)
Формат : AC-3
Формат/Информация : Audio Coding 3
Расширение режима : CM (complete main)
Продолжительность : 19 м.
Вид битрейта : Постоянный
Битрейт : 96,0 Кбит/сек
Канал(ы) : 2 канала(ов)
Расположение каналов : Front: L R
Частота : 48,0 КГц
Битовая глубина : 16 бит
Метод сжатия : С потерями
Задержка видео : -120 мс.
Размер потока : 13,5 Мбайт (4%)

Меню

Общее
Полное имя : E:Иван Грозный 2 DVD9DVD1VIDEO_TSVTS_02_0.BUP
Формат : DVD Video
Профиль формата : Program
Размер файла : 14,0 Кбайт
Продолжительность : 22 с.
Общий поток : 5194 бит/сек

Видео
Идентификатор : 224 (0xE0)
Формат : MPEG Video
Версия формата : Version 2
Продолжительность : 22 с.
Вид битрейта : Переменный
Ширина : 720 пикс.
Высота : 576 пикс.
Соотношение сторон : 4:3
Частота кадров : 25,000 кадр/сек
Стандарт вещания : PAL
Метод сжатия : С потерями

Аудио
Идентификатор : 128 (0x80)
Формат : AC-3
Формат/Информация : Audio Coding 3
Продолжительность : 22 с.
Канал(ы) : 2 канала(ов)
Частота : 48,0 КГц
Метод сжатия : С потерями
Язык : English

Меню
Продолжительность : 22 с.
00:00:00.000 : Chapter 1
List (Audio) : 0

Общее
Полное имя : E:Иван Грозный 2 DVD9DVD1VIDEO_TSVTS_02_0.IFO
Формат : DVD Video
Профиль формата : Program
Размер файла : 14,0 Кбайт
Продолжительность : 22 с.
Общий поток : 5194 бит/сек

Видео
Идентификатор : 224 (0xE0)
Формат : MPEG Video
Версия формата : Version 2
Продолжительность : 22 с.
Вид битрейта : Переменный
Ширина : 720 пикс.
Высота : 576 пикс.
Соотношение сторон : 4:3
Частота кадров : 25,000 кадр/сек
Стандарт вещания : PAL
Метод сжатия : С потерями

Аудио
Идентификатор : 128 (0x80)
Формат : AC-3
Формат/Информация : Audio Coding 3
Продолжительность : 22 с.
Канал(ы) : 2 канала(ов)
Частота : 48,0 КГц
Метод сжатия : С потерями
Язык : English

Меню
Продолжительность : 22 с.
00:00:00.000 : Chapter 1
List (Audio) : 0

Общее
Полное имя : E:Иван Грозный 2 DVD9DVD1VIDEO_TSVTS_02_1.VOB
Формат : MPEG-PS
Размер файла : 20,2 Мбайт
Продолжительность : 22 с.
Общий поток : 7664 Кбит/сек

Видео
Идентификатор : 224 (0xE0)
Формат : MPEG Video
Версия формата : Version 2
Профиль формата : Main@Main
Параметр BVOP формата : Да
Параметр матрицы формата : По умолчанию
Параметры GOP формата : M=3, N=12
Продолжительность : 22 с.
Вид битрейта : Переменный
Битрейт : 7319 Кбит/сек
Номинальный битрейт : 9000 Кбит/сек
Ширина : 720 пикс.
Высота : 576 пикс.
Соотношение сторон : 4:3
Частота кадров : 25,000 кадр/сек
Стандарт вещания : PAL
Цветовое пространство : YUV
Подвыборка цветности : 4:2:0
Битовая глубина : 8 бит
Тип развёртки : Чересстрочная
Порядок развёртки : Нижнее поле первое
Метод сжатия : С потерями
Бит/(Пиксели*Кадры) : 0.706
Размер потока : 19,2 Мбайт (95%)

Аудио
Идентификатор : 128 (0x80)
Формат : AC-3
Формат/Информация : Audio Coding 3
Расширение режима : CM (complete main)
Продолжительность : 22 с.
Вид битрейта : Постоянный
Битрейт : 192 Кбит/сек
Канал(ы) : 2 канала(ов)
Расположение каналов : Front: L R
Частота : 48,0 КГц
Битовая глубина : 16 бит
Метод сжатия : С потерями
Задержка видео : -80 мс.
Размер потока : 519 Кбайт (3%)

Меню

Общее
Полное имя : E:Иван Грозный 2 DVD9DVD1VIDEO_TSVTS_03_0.BUP
Формат : DVD Video
Профиль формата : Program
Размер файла : 14,0 Кбайт
Продолжительность : 16 с.
Общий поток : 6976 бит/сек

Видео
Идентификатор : 224 (0xE0)
Формат : MPEG Video
Версия формата : Version 2
Продолжительность : 16 с.
Вид битрейта : Переменный
Ширина : 720 пикс.
Высота : 576 пикс.
Соотношение сторон : 16:9
Частота кадров : 25,000 кадр/сек
Стандарт вещания : PAL
Метод сжатия : С потерями

Аудио
Идентификатор : 128 (0x80)
Формат : AC-3
Формат/Информация : Audio Coding 3
Продолжительность : 16 с.
Канал(ы) : 2 канала(ов)
Частота : 48,0 КГц
Метод сжатия : С потерями
Язык : English

Меню
Продолжительность : 16 с.
00:00:00.000 : Chapter 1
List (Audio) : 0

Общее
Полное имя : E:Иван Грозный 2 DVD9DVD1VIDEO_TSVTS_03_0.IFO
Формат : DVD Video
Профиль формата : Program
Размер файла : 14,0 Кбайт
Продолжительность : 16 с.
Общий поток : 6976 бит/сек

Видео
Идентификатор : 224 (0xE0)
Формат : MPEG Video
Версия формата : Version 2
Продолжительность : 16 с.
Вид битрейта : Переменный
Ширина : 720 пикс.
Высота : 576 пикс.
Соотношение сторон : 16:9
Частота кадров : 25,000 кадр/сек
Стандарт вещания : PAL
Метод сжатия : С потерями

Аудио
Идентификатор : 128 (0x80)
Формат : AC-3
Формат/Информация : Audio Coding 3
Продолжительность : 16 с.
Канал(ы) : 2 канала(ов)
Частота : 48,0 КГц
Метод сжатия : С потерями
Язык : English

Меню
Продолжительность : 16 с.
00:00:00.000 : Chapter 1
List (Audio) : 0

Общее
Полное имя : E:Иван Грозный 2 DVD9DVD1VIDEO_TSVTS_03_1.VOB
Формат : MPEG-PS
Размер файла : 4,83 Мбайт
Продолжительность : 16 с.
Общий поток : 2466 Кбит/сек

Видео
Идентификатор : 224 (0xE0)
Формат : MPEG Video
Версия формата : Version 2
Профиль формата : Main@Main
Параметр BVOP формата : Да
Параметр матрицы формата : По умолчанию
Продолжительность : 16 с.
Вид битрейта : Переменный
Битрейт : 2225 Кбит/сек
Номинальный битрейт : 9200 Кбит/сек
Ширина : 720 пикс.
Высота : 576 пикс.
Соотношение сторон : 16:9
Частота кадров : 25,000 кадр/сек
Стандарт вещания : PAL
Цветовое пространство : YUV
Подвыборка цветности : 4:2:0
Битовая глубина : 8 бит
Тип развёртки : Прогрессивная
Метод сжатия : С потерями
Бит/(Пиксели*Кадры) : 0.215
Размер потока : 4,36 Мбайт (90%)

Аудио
Идентификатор : 128 (0x80)
Формат : AC-3
Формат/Информация : Audio Coding 3
Расширение режима : CM (complete main)
Продолжительность : 16 с.
Вид битрейта : Постоянный
Битрейт : 192 Кбит/сек
Канал(ы) : 2 канала(ов)
Расположение каналов : Front: L R
Частота : 48,0 КГц
Битовая глубина : 16 бит
Метод сжатия : С потерями
Размер потока : 383 Кбайт (8%)

Меню




По поводу разного размера скриншотов, смотрим MediaInfo



   Похожие торренты   Торрент   Размер 
В этой теме нет новых непрочитанных сообщений. Иван Грозный (2009) DVDRip

395 | 152

8.58 ГБ

В этой теме нет новых непрочитанных сообщений. Иван Грозный (1944) DVDRip-AVC от New-Team

92 | 13

2.18 ГБ

В этой теме нет новых непрочитанных сообщений. Царь Иван Грозный (1991) DVDRip

89 | 11

2.17 ГБ

В этой теме нет новых непрочитанных сообщений. Иван Грозный (1944) DVDRip от New-Team

47 | 5

2.18 ГБ

В этой теме нет новых непрочитанных сообщений. Иван Грозный (1944) DVDRip от New-Team

21 | 14

1.46 ГБ

В этой теме нет новых непрочитанных сообщений. Иван Грозный (1944-1945) DVDRip

385 | 24

2.85 ГБ

В этой теме нет новых непрочитанных сообщений. Царь Иван Грозный (1991) DVDRip от Youtracker

90 | 10

1.45 ГБ




Вы не можете начинать темы
Вы не можете отвечать на сообщения
Вы не можете редактировать свои сообщения
Вы не можете удалять свои сообщения
Вы не можете добавлять вложения

Перейти:  
Для Мосгорсуда, Роскомнадзора и рекламодателей: mosgorsud-torrent[собачка]yandex.ru
 Вход
ppkBB3cker v.2 © 2008-2014 @ PPK
[ Time : 1.778s | 16 Queries | GZIP : Off ]

Торрент трекер RUTOR.IN, Не можете зайти на rutor.org? Какой новый адрес рутор? Какое зеркало рутор? Не работает rutor.org и зеркала? Тогда наш торрент специально для вас. Rutor.in неофициальное зеркало rutor. В случае если у Вас заблокирован rutor или вдруг Вы не можете на него зайти, то Вы без труда сможете скачать бесплатно и без рекламы последние новинки кино, игр, сериалов и прочего у нас, на Rutor.in. Не нужно использовать прокси, чтобы зайти на рутор, достаточно воспользоваться нашим ресурсом. Все новые фильмы, игры, сериалы, книги и музыка за 2013 и 2014 годы через торрент бесплатно. Скачивайте фильмы в хорошем качестве, игры для пк, xbox, playstation без регистрации. У нас вы найдете новые Зарубежные сериалы и Русские сериалы 2013, 2014, 2015 годов. Оставайтесь с нами, качайте любимые фильмы, игры, сериалы, книги и музыку.