img image001 image001 image001 image001 image001 image001 image001 image001 image001 image001 image001 image001 image001 image001 image001

Planets Sun Sun Sun
Статистика раздачи
Автор: Снежана | Размер: 8.83 ГБ | Добавлен: 25 июл 2013
Раздают: 0    Качают: 1
Скачать торрент
Скачать торрент
Описание торрента

СообщениеДобавлено: 25 июл 2013 

#77

Год выпуска: 2011
Производство: Студия 2-Б-2 интертэйнмент
Жанр: Исторический
Продолжительность: ~ 00:56:00 серия
Субтитры: Отсутствуют
Режиссёр: Владимир Бортко
В ролях: Александр Балуев, Ирина Розанова, Сергей Маковецкий, Сергей Шакуров, Александр Филиппенко, Елизавета Боярская, Михаил Боярский, Анна Ковальчук, Владимир Марьянов, Александр Малявин, Александр Сластин, Сергей Дрейден, Владимир Матвеев, Александр Баширов, Константин Воробьев, Сергей Заморев, Валерий Гришко, Максим Радугин, Валерий Соловьев
Описание: По мотивам романа Даниила Гранина "Вечера с Петром Великим".
Последние годы жизни великого самодержца. Кому достанется Россия и что произойдет со страной после смерти императора?
"При нем образовались министерства, промышленность, наука, и кому он это все оставил? Нам с вами". Такую интерпретацию завещания Петра I предлагает зрителям режиссер Владимир Бортко. В то же время это рассказ о больном, одиноком человеке, обеспокоенном, кому оставить свою страну. Никто, кроме молодой княжны, его не понимает, но жениться на ней он не успевает. А верные в прошлом соратники теперь озабочены лишь собственным выживанием после его смерти…
Релиз:
Сэмпл
Качество: DVB
Формат: MPEG
Видео кодек: MPEG2
Аудио кодек: MPEG1 Layer 2
Видео: MPEG2 Video 720x576 (4:3) 25.00fps 5 358 Kbps, 0.517 bit/pixel
Аудио: MPEG Audio 48000Hz stereo 256 Кбит/сек

1 серия Видео
Идентификатор : 224 (0xE0)
Формат : MPEG Video
Версия формата : Version 2
Профиль формата : Main@Main
Параметр BVOP формата : Да
Параметр матрицы формата : По умолчанию
Продолжительность : 54 м.
Вид битрейта : Переменный
Битрейт : 5358 Кбит/сек
Номинальный битрейт : 10000 Кбит/сек
Ширина : 720 пикс.
Высота : 576 пикс.
Соотношение сторон : 4:3
Частота кадров : 25,000 кадр/сек
Стандарт вещания : PAL
Цветовое пространство : YUV
Подвыборка цветности : 4:2:0
Битовая глубина : 8 бит
Тип развёртки : Чересстрочная
Порядок развёртки : Верхнее поле первое
Метод сжатия : С потерями
Бит/(Пиксели*Кадры) : 0.517
Размер потока : 2,05 Гбайт (94%)

Аудио
Идентификатор : 192 (0xC0)
Формат : MPEG Audio
Версия формата : Version 1
Профиль формата : Layer 2
Продолжительность : 54 м.
Вид битрейта : Постоянный
Битрейт : 256 Кбит/сек
Каналы : 2 канала
Частота : 48,0 КГц
Метод сжатия : С потерями
Задержка видео : -40 мс.
Размер потока : 100 Мбайт (4%)
2 серия Видео
Идентификатор : 224 (0xE0)
Формат : MPEG Video
Версия формата : Version 2
Профиль формата : Main@Main
Параметр BVOP формата : Да
Параметр матрицы формата : По умолчанию
Параметры GOP формата : M=2, N=12
Продолжительность : 56 м.
Вид битрейта : Переменный
Битрейт : 5359 Кбит/сек
Номинальный битрейт : 10000 Кбит/сек
Ширина : 720 пикс.
Высота : 576 пикс.
Соотношение сторон : 4:3
Частота кадров : 25,000 кадр/сек
Стандарт вещания : PAL
Цветовое пространство : YUV
Подвыборка цветности : 4:2:0
Битовая глубина : 8 бит
Тип развёртки : Чересстрочная
Порядок развёртки : Верхнее поле первое
Метод сжатия : С потерями
Бит/(Пиксели*Кадры) : 0.517
Размер потока : 2,11 Гбайт (94%)

Аудио
Идентификатор : 192 (0xC0)
Формат : MPEG Audio
Версия формата : Version 1
Профиль формата : Layer 2
Продолжительность : 56 м.
Вид битрейта : Постоянный
Битрейт : 256 Кбит/сек
Каналы : 2 канала
Частота : 48,0 КГц
Метод сжатия : С потерями
Размер потока : 103 Мбайт (4%)
3 серия Видео
Идентификатор : 224 (0xE0)
Формат : MPEG Video
Версия формата : Version 2
Профиль формата : Main@Main
Параметр BVOP формата : Да
Параметр матрицы формата : По умолчанию
Продолжительность : 57 м.
Вид битрейта : Переменный
Битрейт : 5359 Кбит/сек
Номинальный битрейт : 10000 Кбит/сек
Ширина : 720 пикс.
Высота : 576 пикс.
Соотношение сторон : 4:3
Частота кадров : 25,000 кадр/сек
Стандарт вещания : PAL
Цветовое пространство : YUV
Подвыборка цветности : 4:2:0
Битовая глубина : 8 бит
Тип развёртки : Чересстрочная
Порядок развёртки : Верхнее поле первое
Метод сжатия : С потерями
Бит/(Пиксели*Кадры) : 0.517
Размер потока : 2,14 Гбайт (94%)

Аудио
Идентификатор : 192 (0xC0)
Формат : MPEG Audio
Версия формата : Version 1
Профиль формата : Layer 2
Продолжительность : 57 м.
Вид битрейта : Постоянный
Битрейт : 256 Кбит/сек
Каналы : 2 канала
Частота : 48,0 КГц
Метод сжатия : С потерями
Размер потока : 105 Мбайт (4%)
4 серия Видео
Идентификатор : 224 (0xE0)
Формат : MPEG Video
Версия формата : Version 2
Профиль формата : Main@Main
Параметр BVOP формата : Да
Параметр матрицы формата : По умолчанию
Продолжительность : 52 м.
Вид битрейта : Переменный
Битрейт : 5358 Кбит/сек
Номинальный битрейт : 10000 Кбит/сек
Ширина : 720 пикс.
Высота : 576 пикс.
Соотношение сторон : 4:3
Частота кадров : 25,000 кадр/сек
Стандарт вещания : PAL
Цветовое пространство : YUV
Подвыборка цветности : 4:2:0
Битовая глубина : 8 бит
Тип развёртки : Чересстрочная
Порядок развёртки : Верхнее поле первое
Метод сжатия : С потерями
Бит/(Пиксели*Кадры) : 0.517
Размер потока : 1,96 Гбайт (94%)

Аудио
Идентификатор : 192 (0xC0)
Формат : MPEG Audio
Версия формата : Version 1
Профиль формата : Layer 2
Продолжительность : 52 м.
Вид битрейта : Постоянный
Битрейт : 256 Кбит/сек
Каналы : 2 канала
Частота : 48,0 КГц
Метод сжатия : С потерями
Размер потока : 96,1 Мбайт (4%)






   Похожие торренты   Торрент   Размер 
В этой теме нет новых непрочитанных сообщений. Пётр Первый. Завещание [01-04 из 04] (2011) DVD9

55 | 3

7.81 ГБ

В этой теме нет новых непрочитанных сообщений. Петр Первый. Завещание [01-04 из 04] (2011) DVDRip от SergV

0 | 1

3.05 ГБ

В этой теме нет новых непрочитанных сообщений. Петр Первый. Завещание [01-04 из 04] (2011) WEB-DL 1080p от MediaClub

313 | 208

6.48 ГБ

В этой теме нет новых непрочитанных сообщений. Пётр Первый. Завещание [01-04 из 04] (2011) DVDRip от Youtracker

189 | 13

2.77 ГБ

В этой теме нет новых непрочитанных сообщений. Петр Первый. Завещание [01-04 из 04] (2011) WEB-DLRip-AVC от ExKinoRay

278 | 25

2.54 ГБ

В этой теме нет новых непрочитанных сообщений. Петр Первый. Завещание [01-04 из 04] (2011) DVDRip-AVC | Лицензия от Zlofenix

137 | 12

2.75 ГБ

В этой теме нет новых непрочитанных сообщений. Петр Первый (1937) DVDRip

302 | 17

2.02 ГБ




Вы не можете начинать темы
Вы не можете отвечать на сообщения
Вы не можете редактировать свои сообщения
Вы не можете удалять свои сообщения
Вы не можете добавлять вложения

Перейти:  
Для Мосгорсуда, Роскомнадзора и рекламодателей: mosgorsud-torrent[собачка]yandex.ru
 Вход
ppkBB3cker v.2 © 2008-2014 @ PPK
[ Time : 0.055s | 15 Queries | GZIP : Off ]

Торрент трекер RUTOR.IN, Не можете зайти на rutor.org? Какой новый адрес рутор? Какое зеркало рутор? Не работает rutor.org и зеркала? Тогда наш торрент специально для вас. Rutor.in неофициальное зеркало rutor. В случае если у Вас заблокирован rutor или вдруг Вы не можете на него зайти, то Вы без труда сможете скачать бесплатно и без рекламы последние новинки кино, игр, сериалов и прочего у нас, на Rutor.in. Не нужно использовать прокси, чтобы зайти на рутор, достаточно воспользоваться нашим ресурсом. Все новые фильмы, игры, сериалы, книги и музыка за 2013 и 2014 годы через торрент бесплатно. Скачивайте фильмы в хорошем качестве, игры для пк, xbox, playstation без регистрации. У нас вы найдете новые Зарубежные сериалы и Русские сериалы 2013, 2014, 2015 годов. Оставайтесь с нами, качайте любимые фильмы, игры, сериалы, книги и музыку.