img image001 image001 image001 image001 image001 image001 image001 image001 image001 image001 image001 image001 image001 image001 image001

Planets Sun Sun Sun
Статистика раздачи
Автор: Снежана | Размер: 9.36 ГБ | Добавлен: 25 июл 2013
Раздают: 39    Качают: 7
Скачать торрент
Скачать торрент
Описание торрента

СообщениеДобавлено: 25 июл 2013 

#77

Информация о фильме
Название: Хейвен
Оригинальное название: Haven
Год выхода: 2010
Жанр: мистика, драма, детектив
Режиссер: Адам Кэйн / Adam Kane
В ролях: Эмили Роуз, Эрик Бальфур, Лукас Брайант, Ричард Донат, Джон Дансуорт и др.

О фильме:
ейвен в штате Мэн кажется очередным милым приморским городком в Новой Англии, с оригинальными магазинчиками, живописными пляжами и оживленным портом. Но когда агент ФБР Одри Паркер (Эмили Роуз) приезжает сюда по рутинному делу, ей приходится столкнуться с загадочной оборотной стороной Хейвена. Ее расследование приводит к неожиданному открытию: некоторые жители Хейвена обладают сверхъестественными способностями, которые невозможно контролировать, и они часто скрывают их за совершенно ординарным фасадом.

Одри Паркер – это не просто непреклонный высококвалифицированный следователь, она очаровательна, умна и наделена уникальной интуицией. По мере развития сюжета Одри выясняет, что она – единственный человек, способный спасти жителей Хейвена, и решает остаться в городке, чтобы раскрыть тайны, окружающие этих странных людей, и чтобы узнать правду о ее собственном прошлом и связи с этим необычным местом.

Решая проблемы других людей в Хейвене, Одри находит союзников, которые помогают ей в расследованиях. Это Натан Вурнос (Лукас Брайант) / Nathan Wuornos (Lucas Bryant), ироничный местный детектив, который становится напарником Одри в рядах полиции и является одним из тех людей, которые обладают сверхъестественными способностями. Натан не испытывает никаких ощущений – ни боли, ни даже простого прикосновения – по крайней мере, так он говорит Одри. Дюк Крокер (Эрик Бальфур) / Duke Crocker (Eric Balfour) – это враг Натана, не вполне добропорядочный парень, который занимается тайной работой как в рамках закона, так и вне их. А также многие другие местные жители, которые будут помогать или мешать Одри. Такие люди, как Винс и Дэйв Тигес, братья и владельцы местной газеты, начальник полиции Вурнос – отец Натана, который, как и многие другие жители Хейвена, мастерски скрывает местные секреты.

Сериал «Хейвен», снятый по мотивам романа Стивена Кинга «Парень из Колорадо», рассказывает историю того, как Одри знакомится с будто бы обычным городом. По мере развития сюжета стремление Одри понять саму себя и раскрыть тайны Хейвена будет увлекать ее все глубже вниз по кроличьей норе.



Страна: Канада
Продолжительность: ~0:43:00
Перевод: Профессиональный (многоголосый закадровый) Кубик в Кубе

Файл
Кодек: XviD
Качество: WEB-DLRip 400p
Видео: 720x400 (1.80:1), 23.976 fps, XviD MPEG-4 ~1998 kbps avg, 0.29 bit/pixel
Аудио Rus: 48 kHz, AC3 Dolby Digital, 2/0 (L,R) ch, ~192.00 kbps avg
Аудио Eng: 48 kHz, AC3 Dolby Digital, 2/0 (L,R) ch, ~192.00 kbps avg
Размер серии: ~750 Mb
Субтитры: russian, english

Семпл
1. Добро пожаловать в Хэйвен (Welcome to Haven)
2. Бабочка (Butterfly)
3. Гармония (Harmony)
4. Ущерб (Consumed)
5. Оковы (Ball and Chain)
6. Шкура (Fur)
7. Набросок (Sketchy)
8. И никакого просвета (Ain't No Sunshine)
9. Таким каким ты был (As You Were)
10. Рука судьбы (The Hand You're Dealt)
11. Дело Одри Паркер(The Trial Of Audrey Parker)
12. То, что всплыло (Resurfacing)
13. Виток спирали (Spiral)
Видео
Идентификатор : 0
Формат : MPEG-4 Visual
Профиль формата : Advanced Simple@L5
Параметр BVOP формата : 2
Параметр QPel формата : Нет
Параметр GMC формата : Без точки перехода
Параметр матрицы формата : Default (MPEG)
Режим смешивания : Сжатый битовый поток
Идентификатор кодека : XVID
Идентификатор кодека/Подсказка : XviD
Продолжительность : 43 м.
Битрейт : 1997 Кбит/сек
Ширина : 720 пикс.
Высота : 400 пикс.
Соотношение сторон : 16:9
Частота кадров : 23,976 кадр/сек
Цветовое пространство : YUV
Подвыборка цветности : 4:2:0
Битовая глубина : 8 бит
Тип развёртки : Прогрессивная
Метод сжатия : С потерями
Бит/(Пиксели*Кадры) : 0.289
Размер потока : 623 Мбайт (83%)
Библиотека кодирования : XviD 58

Аудио #1
Идентификатор : 1
Формат : AC-3
Формат/Информация : Audio Coding 3
Расширение режима : CM (complete main)
Идентификатор кодека : 2000
Продолжительность : 43 м.
Вид битрейта : Постоянный
Битрейт : 192 Кбит/сек
Канал(ы) : 2 канала(ов)
Расположение каналов : Front: L R
Частота : 48,0 КГц
Битовая глубина : 16 бит
Метод сжатия : С потерями
Размер потока : 59,9 Мбайт (8%)
Выравнивание : Разделение по промежуткам
Продолжительность промежутка : 42 мс. (1,00 видеокадр)
Время предзагрузки промежутка : 500 ms

Аудио #2
Идентификатор : 2
Формат : AC-3
Формат/Информация : Audio Coding 3
Расширение режима : CM (complete main)
Идентификатор кодека : 2000
Продолжительность : 43 м.
Вид битрейта : Постоянный
Битрейт : 192 Кбит/сек
Канал(ы) : 2 канала(ов)
Расположение каналов : Front: L R
Частота : 48,0 КГц
Битовая глубина : 16 бит
Метод сжатия : С потерями
Размер потока : 59,9 Мбайт (8%)
Выравнивание : Разделение по промежуткам
Продолжительность промежутка : 42 мс. (1,00 видеокадр)
Время предзагрузки промежутка : 500 ms


Внимание! Раздача ведётся путём добавления новых серий; при каждом добавлении создётся новый торрент. Чтобы начать докачку новой серии, пользователям необходимо сделать следующее:
(1) остановить скачивание,
(2) удалить старый торрент у себя из клиента (старые серии удалять не надо),
(3) скачать новый торрент и запустить его у себя в клиенте вместо старого, при этом указать клиенту путь в старую папку куда и должно происходить скачивание новых серий.

Ваш клиент при этом должен произвести хеширование (проверку) старой папки (если не производит сам - помогите ему сделать это), и будет докачивать только те серии которых у вас ещё нет. Старые серии при этом не удаляются, а продолжают раздаваться!

Eсли вы уже удалили старые серии, то предотвратить повторную закачку старых серий можно, отжав галочку в соответсвующих местах при запуске нового торрента.


Релиз от: SERGIY_PSP



   Похожие торренты   Торрент   Размер 
В этой теме нет новых непрочитанных сообщений. Хэйвен / Haven [s01] (2010) WEB-DLRip | Кубик в кубе

16 | 10

4.84 ГБ

В этой теме нет новых непрочитанных сообщений. Хэйвен / Haven [S01-04] (2010-2013) WEB-DLRip | Кубик в Кубе

3 | 13

35.85 ГБ

В этой теме нет новых непрочитанных сообщений. Хэйвен / Haven [S01-04] (2010-2013) WEB-DLRip от Generalfilm | КПК | Кубик в Кубе

21 | 30

9.78 ГБ

В этой теме нет новых непрочитанных сообщений. Хэйвен / Тайны Хейвена / Haven [S01-04] (2010-2013) WEB-DLRip | Кубик в Кубе

60 | 50

22.93 ГБ

В этой теме нет новых непрочитанных сообщений. Хэйвен / Haven [01-05х01-65 из 78] (2010-2015) WEB-DLRip от Generalfilm | КПК | Кубик в Кубе

17 | 32

12.23 ГБ

В этой теме нет новых непрочитанных сообщений. Хэйвен / Haven [S03] (2012) WEB-DLRip | Кубик в Кубе

44 | 13

5.77 ГБ

В этой теме нет новых непрочитанных сообщений. Хэйвен / Haven [S02] (2011) WEB-DLRip | Кубик в Кубе

25 | 12

5.67 ГБ




Вы не можете начинать темы
Вы не можете отвечать на сообщения
Вы не можете редактировать свои сообщения
Вы не можете удалять свои сообщения
Вы не можете добавлять вложения

Перейти:  
Для Мосгорсуда, Роскомнадзора и рекламодателей: mosgorsud-torrent[собачка]yandex.ru
 Вход
ppkBB3cker v.2 © 2008-2014 @ PPK
[ Time : 0.031s | 14 Queries | GZIP : Off ]

Торрент трекер RUTOR.IN, Не можете зайти на rutor.org? Какой новый адрес рутор? Какое зеркало рутор? Не работает rutor.org и зеркала? Тогда наш торрент специально для вас. Rutor.in неофициальное зеркало rutor. В случае если у Вас заблокирован rutor или вдруг Вы не можете на него зайти, то Вы без труда сможете скачать бесплатно и без рекламы последние новинки кино, игр, сериалов и прочего у нас, на Rutor.in. Не нужно использовать прокси, чтобы зайти на рутор, достаточно воспользоваться нашим ресурсом. Все новые фильмы, игры, сериалы, книги и музыка за 2013 и 2014 годы через торрент бесплатно. Скачивайте фильмы в хорошем качестве, игры для пк, xbox, playstation без регистрации. У нас вы найдете новые Зарубежные сериалы и Русские сериалы 2013, 2014, 2015 годов. Оставайтесь с нами, качайте любимые фильмы, игры, сериалы, книги и музыку.