img image001 image001 image001 image001 image001 image001 image001 image001 image001 image001 image001 image001 image001 image001 image001

Planets Sun Sun Sun
Статистика раздачи
Автор: Снежана | Размер: 7.39 ГБ | Добавлен: 25 июл 2013, 04:01
Раздают: 136    Качают: 16
Скачать торрент
Скачать торрент
Описание торрента

СообщениеДобавлено: 25 июл 2013, 04:01 

#77

Информация о фильме
Название: Мужская работа 1-2
Год выхода: 2001-2002
Жанр: боевик
Режиссер: Тигран Кеосаян
В ролях: Александр Резалин, Кирилл Иванченко, Алиса Богарт, Савелий Кеся, Федор Бондарчук, Алена Хмельницкая, Николай Чиндяйкин, Екатерина Крупенина, Александр Мохов, Сергей Векслер, Валерий Баринов, Михаил Жигалов, Андрей Богданов

О фильме:
История трех друзей — Пасечника, Лешего и Гюрзы — крутых парней, сделавших войну своей профессией. Бывшие «афганцы» стали наемниками, зарабатывающими большие деньги в «горячих» точках планеты. Спустя десять лет судьбе было угодно свести их вновь на одном «поле боя» в Чечне… по разные стороны баррикад.


Страна: Россия
Студия: Студия 2В
Продолжительность: 350 + 440 min
Перевод: Не требуется

Файл
Кодек: DivX / MP3
Качество: DVDRip
Видео: DivX 5, 704x512 (1.375), 25.000 fps, 1 124 Kbps (0.125 bit/pixel)
Звук: MP3, 48.0 KHz, 2 ch, 192 Kbps, CBR

eneral
Complete name : D:Mushskaja.rabota.1-2.(18.serij.iz.18).2001.DivX.DVDRip-BestVideoMushskaja.rabota.1.(8.serij).2001.DivX.DVDRip-BestVideoMushskaja.rabota.1.(1.serija.iz.8).2001.DivX.DVDRip-BestVideo.avi
Format : AVI
Format/Info : Audio Video Interleave
File size : 421 MiB
Duration : 44mn 21s
Overall bit rate : 1 326 Kbps
Writing application : FairUse Wizard - http://fairusewizard.com
Writing library : The best and REALLY easy backup tool

Video
ID : 0
Format : MPEG-4 Visual
Format settings, BVOP : 1
Format settings, QPel : No
Format settings, GMC : No warppoints
Format settings, Matrix : Default (H.263)
Muxing mode : Packed bitstream
Codec ID : DX50
Codec ID/Hint : DivX 5
Duration : 44mn 21s
Bit rate : 1 124 Kbps
Width : 704 pixels
Height : 512 pixels
Display aspect ratio : 1.375
Frame rate : 25.000 fps
Color space : YUV
Chroma subsampling : 4:2:0
Bit depth : 8 bits
Scan type : Progressive
Compression mode : Lossy
Bits/(Pixel*Frame) : 0.125
Stream size : 357 MiB (85%)
Writing library : DivX 6.8.2 (UTC 2008-05-17)

Audio
ID : 1
Format : MPEG Audio
Format version : Version 1
Format profile : Layer 3
Mode : Joint stereo
Mode extension : MS Stereo
Codec ID : 55
Codec ID/Hint : MP3
Duration : 44mn 20s
Bit rate mode : Constant
Bit rate : 192 Kbps
Channel(s) : 2 channels
Sampling rate : 48.0 KHz
Compression mode : Lossy
Stream size : 60.9 MiB (14%)
Alignment : Aligned on interleaves
Interleave, duration : 40 ms (1.00 video frame)
Interleave, preload duration : 504 ms
Writing library : LAME3.97b
Encoding settings : -m j -V 4 -q 2 -lowpass 18.6 -b 192




   Похожие торренты   Торрент   Размер 
В этой теме нет новых непрочитанных сообщений. Мужская работа [S01-02] (2001-2002) DVDRip от КинозалSAT

33 | 7

9.66 ГБ

В этой теме нет новых непрочитанных сообщений. Мужская работа [01-02x01-18] (2001-2002) 2хDVD-9

41 | 57

14.83 ГБ

В этой теме нет новых непрочитанных сообщений. Мужская работа [01-02] (2015) WEB-DLRip от Generalfilm

2 | 12

1.95 ГБ

В этой теме нет новых непрочитанных сообщений. Мужская работа [01-02] (2015) WEB-DLRip от Generalfilm

2 | 5

3.24 ГБ

В этой теме нет новых непрочитанных сообщений. Мужская работа [01-02] (2015) WEB-DLRip от Generalfilm

0 | 18

1.3 ГБ

В этой теме нет новых непрочитанных сообщений. Мужская работа [01-02] (2015) WEB-DLRip от Generalfilm

7 | 2

3.89 ГБ

В этой теме нет новых непрочитанных сообщений. Мужская работа [01-02] (2015) WEB-DLRip от Generalfilm

0 | 0

4.21 ГБ




Вы не можете начинать темы
Вы не можете отвечать на сообщения
Вы не можете редактировать свои сообщения
Вы не можете удалять свои сообщения
Вы не можете добавлять вложения

Перейти:  
Для Мосгорсуда, Роскомнадзора и рекламодателей: mosgorsud-torrent[собачка]yandex.ru
Настройки
ppkBB3cker v.2 © 2008-2014 @ PPK
[ Time : 0.145s | 15 Queries | GZIP : Off ]
CGP [Extreme] output time : 0.00017s | 0 Queries | GZIP : Off

Торрент трекер RUTOR.IN, Не можете зайти на rutor.org? Какой новый адрес рутор? Какое зеркало рутор? Не работает rutor.org и зеркала? Тогда наш торрент специально для вас. Rutor.in неофициальное зеркало rutor. В случае если у Вас заблокирован rutor или вдруг Вы не можете на него зайти, то Вы без труда сможете скачать бесплатно и без рекламы последние новинки кино, игр, сериалов и прочего у нас, на Rutor.in. Не нужно использовать прокси, чтобы зайти на рутор, достаточно воспользоваться нашим ресурсом. Все новые фильмы, игры, сериалы, книги и музыка за 2013 и 2014 годы через торрент бесплатно. Скачивайте фильмы в хорошем качестве, игры для пк, xbox, playstation без регистрации. У нас вы найдете новые Зарубежные сериалы и Русские сериалы 2013, 2014, 2015 годов. Оставайтесь с нами, качайте любимые фильмы, игры, сериалы, книги и музыку.