img image001 image001 image001 image001 image001 image001 image001 image001 image001 image001 image001 image001 image001 image001 image001

Planets Sun Sun Sun
Статистика раздачи
Автор: Снежана | Размер: 13.07 ГБ | Добавлен: 25 июл 2013
Раздают: 0    Качают: 3
Скачать торрент
Скачать торрент
Описание торрента

СообщениеДобавлено: 25 июл 2013 

#77

Информация о фильме
Название: Детройт 1-8-7
Оригинальное название: Detroit 1-8-7
Год выхода: 2011
Жанр: криминальная драма
Автор идеи: Джейсон Ричман /Jason Richman/
Режиссер: Джейсон Ричман / Jason Richman
В ролях: Майкл Империоли /Michael Imperioli/, Джеймс МакДэниэл /James McDaniel/, Аиша Хиндс /Aisha Hinds/, Джон Майкл Хилл /Jon Michael Hill/, Шон Мажумдер /Shaun Majumder/, Натали Мартинез /Natalie Martinez/, Эрин Каммингс /Erin Cummings/

О фильме:
Что значит быть полицейским на самых опасных улицах Америки? Этот сериал, снятый в документальном стиле, предлагает зрителям через объектив видеокамеры стать прямым свидетелем событий и повседневной жизни отдела убийств города Детройт. Камеры следуют за детективами везде – на работе и в личной жизни, и от них не скроется ничего – опасные расследования, откровения, неприятности и героизм лучших детективов самого криминального города Америки.

1. Pilot
2. Local Hero / Overboard
3. Nobody's Home / Unknown Soldier
4. Royal Bubbles / Needle Drop
5. Murder in GreekTown / High School Confidential
6. Lost Child / Murder 101
7. Broken Engagement / Trashman
8. Deja Vu / All In
9. Home Invasion / Drive-By
10. Shelter
11. Ice Man/Malibu
12. Key to the City
13. Road to Nowhere
14. Beaten / Cover Letter
15. Legacy/Drag City
16. Stone Cold
17. Motor City Blues
18. Blackout




Страна: США, ABC Studios / Mandeville Television / Remainder Men
Продолжительность: ~0:45:00
Перевод: 1) Профессиональный (многоголосый закадровый) FOX Crime

Файл
Кодек: XviD
Качество: WEB-DLRip 400p
Видео: 720x400 (1.80:1), 23.976 fps, XviD MPEG-4 ~1997 kbps avg, 0.29 bit/pixel
Аудио Rus: 48 kHz, AC3 Dolby Digital, 2/0 (L,R) ch, ~192.00 kbps avg
Аудио Eng: 48 kHz, AC3 Dolby Digital, 2/0 (L,R) ch, ~192.00 kbps avg
Субтитры: нет

Семпл
Видео
Идентификатор : 0
Формат : MPEG-4 Visual
Профиль формата : Advanced Simple@L5
Параметр BVOP формата : 2
Параметр QPel формата : Нет
Параметр GMC формата : Без точки перехода
Параметр матрицы формата : Default (MPEG)
Режим смешивания : Сжатый битовый поток
Идентификатор кодека : XVID
Идентификатор кодека/Подсказка : XviD
Продолжительность : 43 м.
Битрейт : 1993 Кбит/сек
Ширина : 720 пикс.
Высота : 400 пикс.
Соотношение сторон : 16:9
Частота кадров : 23,976 кадр/сек
Цветовое пространство : YUV
Подвыборка цветности : 4:2:0
Битовая глубина : 8 бит
Тип развёртки : Прогрессивная
Метод сжатия : С потерями
Бит/(Пиксели*Кадры) : 0.289
Размер потока : 620 Мбайт (83%)
Библиотека кодирования : XviD 58

Аудио #1
Идентификатор : 1
Формат : AC-3
Формат/Информация : Audio Coding 3
Расширение режима : CM (complete main)
Идентификатор кодека : 2000
Продолжительность : 43 м.
Вид битрейта : Постоянный
Битрейт : 192 Кбит/сек
Канал(ы) : 2 канала(ов)
Расположение каналов : Front: L R
Частота : 48,0 КГц
Битовая глубина : 16 бит
Метод сжатия : С потерями
Размер потока : 59,8 Мбайт (8%)
Выравнивание : Разделение по промежуткам
Продолжительность промежутка : 42 мс. (1,00 видеокадр)
Время предзагрузки промежутка : 500 ms

Аудио #2
Идентификатор : 2
Формат : AC-3
Формат/Информация : Audio Coding 3
Расширение режима : CM (complete main)
Идентификатор кодека : 2000
Продолжительность : 43 м.
Вид битрейта : Постоянный
Битрейт : 192 Кбит/сек
Канал(ы) : 2 канала(ов)
Расположение каналов : Front: L R
Частота : 48,0 КГц
Битовая глубина : 16 бит
Метод сжатия : С потерями
Размер потока : 59,7 Мбайт (8%)
Выравнивание : Разделение по промежуткам
Продолжительность промежутка : 42 мс. (1,00 видеокадр)
Время предзагрузки промежутка : 500 ms

Внимание! Раздача ведётся путём добавления новых серий; при каждом добавлении создётся новый торрент. Чтобы начать докачку новой серии, пользователям необходимо сделать следующее:
(1) остановить скачивание,
(2) удалить старый торрент у себя из клиента (старые серии удалять не надо),
(3) скачать новый торрент и запустить его у себя в клиенте вместо старого, при этом указать клиенту путь в старую папку куда и должно происходить скачивание новых серий.

Ваш клиент при этом должен произвести хеширование (проверку) старой папки (если не производит сам - помогите ему сделать это), и будет докачивать только те серии которых у вас ещё нет. Старые серии при этом не удаляются, а продолжают раздаваться!

Eсли вы уже удалили старые серии, то предотвратить повторную закачку старых серий можно, отжав галочку в соответсвующих местах при запуске нового торрента.


Релиз от: SERGIY_PSP



   Похожие торренты   Торрент   Размер 
В этой теме нет новых непрочитанных сообщений. Детройт 1-8-7 / Detroit 1-8-7 [S01] (2011) WEB-DLRip

1 | 3

7.04 ГБ

В этой теме нет новых непрочитанных сообщений. Детройт 1-8-7 / Detroit 1-8-7 [S01] (2011) WEB-DL 720p

0 | 3

25.43 ГБ

В этой теме нет новых непрочитанных сообщений. Доктор Детройт / Doctor Detroit (1983) DVDRip | P

47 | 12

1.37 ГБ

В этой теме нет новых непрочитанных сообщений. Детройт - Город Рока / Detroit Rock City (1999) DVDRip

28 | 6

1.45 ГБ

В этой теме нет новых непрочитанных сообщений. Детройт - город рока / Detroit Rock City (1999) HDTVRip-AVC

0 | 1

1.5 ГБ

В этой теме нет новых непрочитанных сообщений. Детройт – город рока / Detroit Rock City (1999) HDRip от Scarabey | P

58 | 12

744.17 МБ

В этой теме нет новых непрочитанных сообщений. Детройт, город металла / Detroit metal city (2008) BDRip-AVC 720p

1 | 2

4.33 ГБ




Вы не можете начинать темы
Вы не можете отвечать на сообщения
Вы не можете редактировать свои сообщения
Вы не можете удалять свои сообщения
Вы не можете добавлять вложения

Перейти:  
Для Мосгорсуда, Роскомнадзора и рекламодателей: mosgorsud-torrent[собачка]yandex.ru
 Вход
ppkBB3cker v.2 © 2008-2014 @ PPK
[ Time : 0.073s | 15 Queries | GZIP : On ]

Торрент трекер RUTOR.IN, Не можете зайти на rutor.org? Какой новый адрес рутор? Какое зеркало рутор? Не работает rutor.org и зеркала? Тогда наш торрент специально для вас. Rutor.in неофициальное зеркало rutor. В случае если у Вас заблокирован rutor или вдруг Вы не можете на него зайти, то Вы без труда сможете скачать бесплатно и без рекламы последние новинки кино, игр, сериалов и прочего у нас, на Rutor.in. Не нужно использовать прокси, чтобы зайти на рутор, достаточно воспользоваться нашим ресурсом. Все новые фильмы, игры, сериалы, книги и музыка за 2013 и 2014 годы через торрент бесплатно. Скачивайте фильмы в хорошем качестве, игры для пк, xbox, playstation без регистрации. У нас вы найдете новые Зарубежные сериалы и Русские сериалы 2013, 2014, 2015 годов. Оставайтесь с нами, качайте любимые фильмы, игры, сериалы, книги и музыку.
cron