img image001 image001 image001 image001 image001 image001 image001 image001 image001 image001 image001 image001 image001 image001 image001

Planets Sun Sun Sun
Статистика раздачи
Автор: Снежана | Размер: 3.48 ГБ | Добавлен: 25 июл 2013
Раздают: 0    Качают: 3
Скачать торрент
Скачать торрент
Описание торрента

СообщениеДобавлено: 25 июл 2013 

#77

Информация о фильме
Название: Читающий мысли
Оригинальное название: The Listener
Год выхода: 2011
Жанр: фэнтези, драма, криминал
Режиссер: Клемент Вирго, Кари Скогланд, Чарльз Бинами
В ролях: Крейг Олейник, Лиза Маркос, Эннис Эсмер, Милен Дин-Робик

О фильме:
Тоби Логан — 28-летний парамедик, обладающий способностью читать мысли людей. В один прекрасный день он решает использовать свой дар на благо других людей и помогать раскрывать преступления.
Официальный сайт

Страна: Канада
Продолжительность: ~45 минут серия
Перевод: Любительский (одноголосый закадровый) [Jetvis Studio]

Файл
Кодек: XviD / MP3
Качество: HDTVRip
Видео: XviD, 624x352 (1.77:1), 23.976 fps, ~1000 kbps, 0.200 bit/pixel
Звук: MP3, 44.1 kHz, 2 ch, 128 kbps

Семпл
General
Format : AVI
Format/Info : Audio Video Interleave
File size : 349 MiB
Duration : 40mn 56s
Overall bit rate : 1 191 Kbps
Writing application : VirtualDubMod 1.5.4.1 (build 2178/release)
Writing library : VirtualDubMod build 2178/release

Video
ID : 0
Format : MPEG-4 Visual
Format profile : Advanced Simple@L5
Format settings, BVOP : Yes
Format settings, QPel : No
Format settings, GMC : No warppoints
Format settings, Matrix : Default (H.263)
Muxing mode : Packed bitstream
Codec ID : XVID
Codec ID/Hint : XviD
Duration : 40mn 56s
Bit rate : 1 053 Kbps
Width : 624 pixels
Height : 352 pixels
Display aspect ratio : 16:9
Frame rate : 23.976 fps
Color space : YUV
Chroma subsampling : 4:2:0
Bit depth : 8 bits
Scan type : Progressive
Compression mode : Lossy
Bits/(Pixel*Frame) : 0.200
Stream size : 308 MiB (88%)
Writing library : XviD 1.2.1 (UTC 2008-12-04)

Audio
ID : 1
Format : MPEG Audio
Format version : Version 1
Format profile : Layer 3
Codec ID : 55
Codec ID/Hint : MP3
Duration : 40mn 56s
Bit rate mode : Constant
Bit rate : 128 Kbps
Channel(s) : 2 channels
Sampling rate : 44.1 KHz
Compression mode : Lossy
Stream size : 37.5 MiB (11%)
Alignment : Split accross interleaves
Interleave, duration : 42 ms (1.00 video frame)
Interleave, preload duration : 500 ms




   Похожие торренты   Торрент   Размер 
В этой теме нет новых непрочитанных сообщений. Читающий мысли / The Listener [S02] (2011) HDTVRip | Fox Life

70 | 12

4.93 ГБ

В этой теме нет новых непрочитанных сообщений. Читающий мысли / The Listener [s05] (2014) HDTVRip

55 | 49

4.38 ГБ

В этой теме нет новых непрочитанных сообщений. Читающий мысли / The Listener [03х01-07] (2012) HDTVRip | Fox Crime

44 | 6

2.51 ГБ

В этой теме нет новых непрочитанных сообщений. Читающий мысли / The Listener [S01-05] (2009-2014) DVDRip, HDTVRip, WEB-DLRip | Fox

142 | 172

27.69 ГБ

В этой теме нет новых непрочитанных сообщений. Читающий мысли / The Listener [05x01-02] (2014) WEB-DL 720p от MediaClub | FOX

63 | 10

2.74 ГБ

В этой теме нет новых непрочитанных сообщений. Читающий мысли / The Listener [05x01-10] (2014) WEB-DLRip от MediaClub | FOX

161 | 229

5.85 ГБ

В этой теме нет новых непрочитанных сообщений. Читающий мысли / The Listener [05x01-10] (2014) WEB-DL 720p от MediaClub | FOX

35 | 80

13.4 ГБ




Вы не можете начинать темы
Вы не можете отвечать на сообщения
Вы не можете редактировать свои сообщения
Вы не можете удалять свои сообщения
Вы не можете добавлять вложения

Перейти:  
Для Мосгорсуда, Роскомнадзора и рекламодателей: mosgorsud-torrent[собачка]yandex.ru
 Вход
ppkBB3cker v.2 © 2008-2014 @ PPK
[ Time : 0.056s | 15 Queries | GZIP : Off ]

cron