img image001 image001 image001 image001 image001 image001 image001 image001 image001 image001 image001 image001 image001 image001 image001

Planets Sun Sun Sun
Статистика раздачи
Автор: Снежана | Размер: 1.37 ГБ | Добавлен: 25 июл 2013
Раздают: 2    Качают: 3
Скачать торрент
Скачать торрент
Описание торрента

СообщениеДобавлено: 25 июл 2013 

#77

Информация о фильме
Название: Психовилль
Оригинальное название: Psychoville
Год выхода: 2011
Жанр: Комедия, триллер
Режиссер: Мэтт Липси
В ролях: Рис Ширсмит, Стив Пембертон, Дон Френч, Джейсон Томпкинс, Николас Ле Превост, Дэниэл Калуя, Адриан Скарборо, Дейзи Хаггард, Айлин Эткинс и др.

О фильме: ВВС представляет новую черную комедию-триллер!
Они живут в разных уголках страны: слепой затворник со своим странным увлечением, карлик с даром телекинеза, озлобленный клоун с рукой-крюком, парень-параноик и чокнутая тетка с необычным ребенком.
У них разное прошлое, разные интересы и жизненные взгляды. Однажды, все они получили анонимное письмо, в котором была лишь одна фраза: "Я знаю, что ты сделал..."


Страна: Великобритания (BBC)
Продолжительность: ~30 мин. - серия
Перевод: Субтитры - (notabenoid) + английские субтитры

Файл
Кодек: XviD
Качество: HDTVRip
Видео: 624x352 (1.77:1), 25 fps, XviD build 50 ~972 kbps avg, 0.18 bit/pixel
Звук: 44.1 kHz, MPEG Layer 3, 2 ch, ~192.00 kbps avg
Внимание! Раздача ведётся путём добавления новых серий; при каждом добавлении создётся новый торрент.
Чтобы начать докачку новой серии, пользователям необходимо сделать следующее: (1) остановить скачивание,
(2) удалить старый торрент у себя из клиента (старые серии удалять не надо), (3) скачать новый
торрент и запустить его у себя в клиенте вместо старого, при этом указать клиенту путь в старую
папку куда и должно происходить скачивание новых серий.
Ваш клиент при этом должен произвести хеширование (проверку) старой папки (если не производит
сам - помогите ему сделать это), и будет докачивать только те серии которых у вас ещё нет.
Старые серии при этом не удаляются, а продолжают раздаваться!
Eсли вы уже удалили старые серии, то предотвратить повторную закачку старых серий можно,
отжав галочку в соответсвующих местах при запуске нового торрента.
[color=green]General
Complete name : D:видеосериалыпсиховильpsychoville.2x01.hdtv.xvid-fov.avi
Format : AVI
Format/Info : Audio Video Interleave
File size : 233 MiB
Duration : 29mn 15s
Overall bit rate : 1 113 Kbps
Writing application : transcode-1.1.5

Video
ID : 0
Format : MPEG-4 Visual
Format profile : Advanced Simple@L5
Format settings, BVOP : Yes
Format settings, QPel : No
Format settings, GMC : No warppoints
Format settings, Matrix : Default (H.263)
Codec ID : XVID
Codec ID/Hint : XviD
Duration : 29mn 15s
Bit rate : 972 Kbps
Width : 624 pixels
Height : 352 pixels
Display aspect ratio : 16:9
Frame rate : 25.000 fps
Resolution : 8 bits
Colorimetry : 4:2:0
Scan type : Progressive
Bits/(Pixel*Frame) : 0.177
Stream size : 203 MiB (87%)
Writing library : XviD 1.2.1 (UTC 2008-12-04)

Audio
ID : 1
Format : MPEG Audio
Format version : Version 1
Format profile : Layer 3
Mode : Joint stereo
Format_Settings_ModeExtension : MS Stereo
Codec ID : 55
Codec ID/Hint : MP3
Duration : 29mn 15s
Bit rate mode : Variable
Bit rate : 128.0 Kbps
Channel(s) : 2 channels
Sampling rate : 48.0 KHz
Stream size : 26.9 MiB (12%)
Alignment : Aligned on interleaves
Interleave, duration : 24 ms (0.60 video frame)

Добавлена финальная 6-я серия



   Похожие торренты   Торрент   Размер 
В этой теме нет новых непрочитанных сообщений. Психовилль / Psychoville [S02] (2011) HDTVRip | Jet (Jetvis Studio)

0 | 2

1.44 ГБ

В этой теме нет новых непрочитанных сообщений. Формула 1. Сезон 2011. Этап 10 из 19. Гран-при Германии. Гонка (2011) HDTVRip

1 | 2

1.82 ГБ

В этой теме нет новых непрочитанных сообщений. Coldplay - Glastonbury Festival of Contemporary Performing Arts 2011 (2011) HDTVRip

2 | 1

1.46 ГБ

В этой теме нет новых непрочитанных сообщений. Формула 1. Сезон 2011. Этап 10 из 19. Гран-При Германии. Квалификация (2011) HDTVRip

0 | 2

1.01 ГБ

В этой теме нет новых непрочитанных сообщений. Снукер. UK Championship 2011. Day 4 (Judd Trump - Ronnie O'Sallivan) [Eurosport HD] (2011) HDTVRip

0 | 2

1.72 ГБ

В этой теме нет новых непрочитанных сообщений. Снукер. UK Championship 2011. Первый полуфинал (Вторая сессия) [Eurosport HD] (2011) HDTVRip

0 | 2

2.09 ГБ

В этой теме нет новых непрочитанных сообщений. Формула 1. Сезон 2011. Этап 8 из 19. Гран-при Европы. Гонка (2011) HDTVRip 720p

0 | 6

3.65 ГБ




Вы не можете начинать темы
Вы не можете отвечать на сообщения
Вы не можете редактировать свои сообщения
Вы не можете удалять свои сообщения
Вы не можете добавлять вложения

Перейти:  
Для Мосгорсуда, Роскомнадзора и рекламодателей: mosgorsud-torrent[собачка]yandex.ru
 Вход
ppkBB3cker v.2 © 2008-2014 @ PPK
[ Time : 0.065s | 14 Queries | GZIP : Off ]

Торрент трекер RUTOR.IN, Не можете зайти на rutor.org? Какой новый адрес рутор? Какое зеркало рутор? Не работает rutor.org и зеркала? Тогда наш торрент специально для вас. Rutor.in неофициальное зеркало rutor. В случае если у Вас заблокирован rutor или вдруг Вы не можете на него зайти, то Вы без труда сможете скачать бесплатно и без рекламы последние новинки кино, игр, сериалов и прочего у нас, на Rutor.in. Не нужно использовать прокси, чтобы зайти на рутор, достаточно воспользоваться нашим ресурсом. Все новые фильмы, игры, сериалы, книги и музыка за 2013 и 2014 годы через торрент бесплатно. Скачивайте фильмы в хорошем качестве, игры для пк, xbox, playstation без регистрации. У нас вы найдете новые Зарубежные сериалы и Русские сериалы 2013, 2014, 2015 годов. Оставайтесь с нами, качайте любимые фильмы, игры, сериалы, книги и музыку.