img image001 image001 image001 image001 image001 image001 image001 image001 image001 image001 image001 image001 image001 image001 image001

Planets Sun Sun Sun
Статистика раздачи
Автор: Снежана | Размер: 7.06 ГБ | Добавлен: 25 июл 2013
Раздают: 0    Качают: 3
Скачать торрент
Скачать торрент
Описание торрента

СообщениеДобавлено: 25 июл 2013 

#77

Год выпуска: 2004
Жанр: Детективный триллер
Продолжительность: 208 мин.
Режиссер: Станислав Мареев
В ролях: Владимир Турчинский, Игорь Лифанов, Сергей Мурзин, Евгений Жариков, Семен Стругачев, Андрей Федорцов, Ольга Сидорова
Описание: В маленький курортный городок возвращается успешная фотомодель. С новой силой вспыхивает полузабытая страсть… Любовный многоугольник вновь встает между друзьями детства.
Но городок изменился. И в старом наркотранзитном картеле новое поколение решает переделить власть. И начинает войну… Но городок слишком мал, и любовь оказывается втянута в войну… Ради золота и ради любви в жертву приносятся жизни и судьбы, разделенные расстоянием и временем… но золото не стареет, как любовь.
1 серия. Известная фотомодель Катя Зацепина возвращается в родной город, где встречает двух своих давних поклонников офицера МЧС Медунова и профессионального телохранителя Дулова. Парни собираются вновь бороться за любовь Кати. Во время пожара погибает глава местного наркокартеля Арам. Его место готовится занять Флинт, но оно достается другому человеку. Флинт уходит в оппозицию… Медунов теряет половинку старинной греческой монеты, которую ему перед смертью передал Арам. Ее находит Федор - один из "черных следопытов", приехавших в город искать клад. Старшая сестра Зацепиной Ольга демонстрирует чудеса коварства и разбивает любовный треугольник.
2 серия. "Следопыты" и их приятель Пистон продолжают поиски клада. Медунов и Катя развивают свой притворный роман.
На базах наркокартеля происходят загадочные убийства. Флинт пытается наладить свой канал наркотранзита, а тем временем в город приезжают сотрудники Федеральной Службы по борьбе с незаконным оборотом наркотиков. Они выслеживают встречу Флинта с чеченскими поставщиками. Двое чеченцев пытаются захватить заложников в универсаме. Их обезвреживает Дулов, но сам попадает в руки "федералов". Медунов выезжает на очередной пожар…
3 серия. Медунов спасает Артура начальника сгоревшей базы. Тот утверждает, что знает человека, который устроил пожар. Флинт посылает в КПЗ к Артуру киллера. Там же оказываются и "следопыты", захваченные с найденными ценностями.
Медунова захватывают люди Хана. Глава наркокартеля дает ему ровно сутки на поиски монеты. Дулов, "следопыты" и Артур бегут из КПЗ. Люди Хана похищают Катю…
4 серия. Группа боевиков Флинта нападает на след беглецов. Завязывается бой. Медунов помогает уничтожить боевиков. В это время бандиты держат Катю под арестом. Медунов и Дулов пускаются на ее поиски. Совместно с Ханом они решают выставить в роли поставщиков "следопытов". Но недооценивают Флинта, схватка с которым оборачивается кровопролитным сражением.


Файл:
Видео
Идентификатор : 224 (0xE0)
Формат : MPEG Video
Версия формата : Version 2
Профиль формата : Main@Main
Параметр BVOP формата : Да
Параметр матрицы формата : По умолчанию
Параметры GOP формата : M=3, N=15
Продолжительность : 28 м.
Вид битрейта : Переменный
Битрейт : 4615 Кбит/сек
Номинальный битрейт : 8000 Кбит/сек
Ширина : 720 пикс.
Высота : 576 пикс.
Соотношение сторон : 4:3
Частота кадров : 25,000 кадр/сек
Стандарт вещания : PAL
Цветовое пространство : YUV
Подвыборка цветности : 4:2:0
Битовая глубина : 8 бит
Тип развёртки : Чересстрочная
Порядок развёртки : Верхнее поле первое
Метод сжатия : С потерями
Бит/(Пиксели*Кадры) : 0.445
Размер потока : 957 Мбайт (93%)

Аудио
Идентификатор : 189 (0xBD)-128 (0x80)
Формат : AC-3
Формат/Информация : Audio Coding 3
Расширение режима : CM (complete main)
Режим смешивания : DVD-Video
Продолжительность : 28 м.
Вид битрейта : Постоянный
Битрейт : 224 Кбит/сек
Каналы : 2 канала
Расположение каналов : Front: L R
Частота : 48,0 КГц
Битовая глубина : 16 бит
Метод сжатия : С потерями
Задержка видео : -80 мс.
Размер потока : 46,4 Мбайт (5%)

Качество: DVD9
Формат: DVD Video
Видео кодек: MPEG2
Аудио кодек: AC3
Видео: MPEG 2, PAL 4:3, 720x576
Аудио: Russian Dolby AC3, 48000Hz, 224 Кбит/сек, 2 ch



   Похожие торренты   Торрент   Размер 
В этой теме нет новых непрочитанных сообщений. Золотая Медуза [01-04 из 04] (2005) DVDRip от КинозалSAT

447 | 9

2.54 ГБ

В этой теме нет новых непрочитанных сообщений. Клавдия Шульженко - Золотая коллекция 2004 (2004) MP3

82 | 1

181.5 МБ

В этой теме нет новых непрочитанных сообщений. Игра на выбывание [01-08 из 08] (2004) 2 x DVD9 от New-Team | Лицензия

6 | 9

14 ГБ

В этой теме нет новых непрочитанных сообщений. Миллион лет до нашей эры / RRRrrrr!!! (2004) DVD9 от Youtracker | D | Лицензия

36 | 5

5.85 ГБ

В этой теме нет новых непрочитанных сообщений. Helmut Lotti – From Russia With Love (2004) DVD9 от Youtracker | Лицензия

0 | 2

7.15 ГБ

В этой теме нет новых непрочитанных сообщений. Хроники Риддика / The Chronicles of Riddick (2004) DVD9 от New-Team | D | Лицензия

2 | 4

6.58 ГБ

В этой теме нет новых непрочитанных сообщений. Полет Феникса / Flight of the Phoenix (2004) DVD9 от Youtracker | D | Лицензия

1 | 2

6.57 ГБ




Вы не можете начинать темы
Вы не можете отвечать на сообщения
Вы не можете редактировать свои сообщения
Вы не можете удалять свои сообщения
Вы не можете добавлять вложения

Перейти:  
Для Мосгорсуда, Роскомнадзора и рекламодателей: mosgorsud-torrent[собачка]yandex.ru
 Вход
ppkBB3cker v.2 © 2008-2014 @ PPK
[ Time : 0.069s | 15 Queries | GZIP : Off ]

Торрент трекер RUTOR.IN, Не можете зайти на rutor.org? Какой новый адрес рутор? Какое зеркало рутор? Не работает rutor.org и зеркала? Тогда наш торрент специально для вас. Rutor.in неофициальное зеркало rutor. В случае если у Вас заблокирован rutor или вдруг Вы не можете на него зайти, то Вы без труда сможете скачать бесплатно и без рекламы последние новинки кино, игр, сериалов и прочего у нас, на Rutor.in. Не нужно использовать прокси, чтобы зайти на рутор, достаточно воспользоваться нашим ресурсом. Все новые фильмы, игры, сериалы, книги и музыка за 2013 и 2014 годы через торрент бесплатно. Скачивайте фильмы в хорошем качестве, игры для пк, xbox, playstation без регистрации. У нас вы найдете новые Зарубежные сериалы и Русские сериалы 2013, 2014, 2015 годов. Оставайтесь с нами, качайте любимые фильмы, игры, сериалы, книги и музыку.