img image001 image001 image001 image001 image001 image001 image001 image001 image001 image001 image001 image001 image001 image001 image001

Planets Sun Sun Sun
Статистика раздачи
Автор: Снежана | Размер: 379.96 МБ | Добавлен: 25 июл 2013
Раздают: 0    Качают: 2
Скачать торрент
Скачать торрент
Описание торрента

СообщениеДобавлено: 25 июл 2013 


#77

Информация о фильме
Название: Детская больница
Оригинальное название: Children's Hospital
Год выхода: 2008
Жанр: комедия
В ролях: Эринн Хайес, Меган Маллалли, Роб Корддри, Озеро Белл, Кен Марино, Майкл Cera

Описание: Больница - не место для лентяев. Больница – это место для умных людей, которые заботятся о тех, кто не достаточно умён, чтобы сохранить своё здоровье. Сериал рассказывает о взаимоотношении между врачами, которым иногда, чтобы отвлечься от собственных проблем, приходится лечить больных детей.

Страна: США
Продолжительность: ~ 00:10:00
Перевод: Профессиональный (многоголосый, закадровый) VO-Production

Файл
Кодек: XviD
Качество: WEB-DLRip
Видео: 720*400 (1.80), 23.976 fps, XviD MPEG-4, ~1694 kbps, 0.25 bit/pixel
русская дорожка: 48 kHz, AC3 Dolby Digital, 2 ch, ~192 kbps


Video
ID : 0
Format : MPEG-4 Visual
Format profile : Advanced Simple@L5
Format settings, BVOP : Yes
Format settings, QPel : No
Format settings, GMC : No warppoints
Format settings, Matrix : Default (H.263)
Muxing mode : Packed bitstream
Codec ID : XVID
Codec ID/Hint : XviD
Duration : 9mn 34s
Bit rate : 1 700 Kbps
Width : 720 pixels
Height : 400 pixels
Display aspect ratio : 16:9
Frame rate : 23.976 fps
Resolution : 8 bits
Colorimetry : 4:2:0
Scan type : Progressive
Bits/(Pixel*Frame) : 0.246
Stream size : 116 MiB (89%)
Writing library : XviD 1.2.0.dev47 (UTC 2006-11-01)

Audio
ID : 1
Format : AC-3
Format/Info : Audio Coding 3
Codec ID : 2000
Duration : 9mn 34s
Bit rate mode : Constant
Bit rate : 192 Kbps
Channel(s) : 2 channels
Channel positions : L R
Sampling rate : 48.0 KHz
Stream size : 13.2 MiB (10%)
Alignment : Split accross interleaves
Interleave, duration : 42 ms (1.00 video frame)
Interleave, preload duration : 500 ms
Внимание! Раздача ведётся путём добавления новых серий; при каждом добавлении создётся новый торрент. Чтобы начать докачку новой серии, пользователям необходимо сделать следующее: (1) остановить скачивание, (2) удалить старый торрент у себя из клиента (старые серии удалять не надо), (3) скачать новый торрент и запустить его у себя в клиенте вместо старого, при этом указать клиенту путь в старую папку куда и должно происходить скачивание новых серий.
Ваш клиент при этом должен произвести хеширование (проверку) старой папки (если не производит сам - помогите ему сделать это), и будет докачивать только те серии которых у вас ещё нет. Старые серии при этом не удаляются, а продолжают раздаваться!
Eсли вы уже удалили старые серии, то предотвратить повторную закачку старых серий можно, отжав галочку в соответсвующих местах при запуске нового торрента.




   Похожие торренты   Торрент   Размер 
В этой теме нет новых непрочитанных сообщений. Детская больница / Childrens Hospital [S01-02] (2008-2009) WEB-DLRip | P

0 | 2

2.15 ГБ

В этой теме нет новых непрочитанных сообщений. Детская больница / Childrens Hospital [S03] (2010) WEB-DL 720p | телеканал 2х2

0 | 2

4.87 ГБ

В этой теме нет новых непрочитанных сообщений. Больница / The Hospital (1971) WEB-DLRip от Koenig | P

9 | 0

1.45 ГБ

В этой теме нет новых непрочитанных сообщений. Большая Электронная Детская Энциклопедия "Земля" / The greater Electronic Children's E "Earth" [1СD] (2004) PC

15 | 5

159.46 МБ

В этой теме нет новых непрочитанных сообщений. Большая Электронная Детская Энциклопедия "Искусство" / The greater Electronic Children's E "Art" [1СD] (2004) PC

17 | 4

255.77 МБ

В этой теме нет новых непрочитанных сообщений. Крик / Scream [01x01] (2015) WEB-DLRip | Alternative Production

422 | 3

515.62 МБ

В этой теме нет новых непрочитанных сообщений. Больница Никербокер / The Knick [01x01-07 из 10] (2014) HDTVRip | NewStudio

100 | 140

4.34 ГБ




Вы не можете начинать темы
Вы не можете отвечать на сообщения
Вы не можете редактировать свои сообщения
Вы не можете удалять свои сообщения
Вы не можете добавлять вложения

Перейти:  
Для Мосгорсуда, Роскомнадзора и рекламодателей: mosgorsud-torrent[собачка]yandex.ru
 Вход
ppkBB3cker v.2 © 2008-2014 @ PPK
[ Time : 0.510s | 16 Queries | GZIP : Off ]

cron