img image001 image001 image001 image001 image001 image001 image001 image001 image001 image001 image001 image001 image001 image001 image001

Planets Sun Sun Sun
Статистика раздачи
Автор: Снежана | Размер: 964.24 МБ | Добавлен: 25 июл 2013
Раздают: 0    Качают: 2
Скачать торрент
Скачать торрент
Описание торрента

СообщениеДобавлено: 25 июл 2013 

#77

Информация о фильме
Название: Тик-герой
Оригинальное название: The Tick
Год выхода: 2001
Жанр: комедия
В ролях: Патрик Варбертон, Дэвид Бурк, Лиз Вэсси, Нестор Карбонелл, Уильям Ньюман, Кристофер Ллойд, Рон Перлман, Курт Фуллер

Описание: Тик — голубоглазый, борец с преступностью. Он является самым честным супергероем среди своих собратьев. Он прыгает по крышам небоскребов. В нем сила природы, он бесстрашен, не признает поражений, его не возможно остановить (в большинстве случаев), он не сокрушим, полон достоинства и обаяния, и у него золотое сердце.

Вместе со своим верным помощником Артуром в костюме мотылька, бывшим счетоводом, Тик сражается с самыми необычными и неординарными преступниками. Наш герой может смотреть на мир сквозь розовые очки, но это не значит, что он готов выполнять свое героическое предназначение и сражаться с самыми отъявленными негодяями.

Самыми лютыми врагами Тика являются: Стулолицый Чиппендейл — талантливый злодей, имеющий стул вместо лица, который так и не смог смириться с насмешками; Эль Зерно — растение, имеющее лепестки вместо рук и ног; Хлебопек — негодяй, грозящий



Страна: США
Продолжительность: ~20мин
Перевод: Любительский двухголосый закадровый (PartyKing & RatedR)

Файл
Качество: DVDRip
Видео: MP4 720x480 29.970fps 1767Kbps 0.085bit/pixel
русская дорожка: AAC 44.1 KHz stereo 128Kbps

Семпл


General
Complete name : D:The TickThe Tick EP01- Pilot.mp4
Format : MPEG-4
Format profile : Base Media / Version 2
Codec ID : mp42
File size : 326 MiB
Duration : 21mn 53s
Overall bit rate : 2 080 Kbps
Encoded date : UTC 2011-03-11 10:07:16
Tagged date : UTC 2011-03-11 10:07:16

Video
ID : 2
Format : AVC
Format/Info : Advanced Video Codec
Format profile : Main@L3.0
Format settings, CABAC : Yes
Format settings, ReFrames : 5 frames
Codec ID : avc1
Codec ID/Info : Advanced Video Coding
Duration : 21mn 53s
Bit rate mode : Variable
Bit rate : 1 947 Kbps
Width : 720 pixels
Height : 480 pixels
Display aspect ratio : 4:3
Frame rate mode : Constant
Frame rate : 59.940 fps
Original frame rate : 29.970 fps
Standard : NTSC
Color space : YUV
Chroma subsampling : 4:2:0
Bit depth : 8 bits
Scan type : Interlaced
Scan order : Bottom Field First
Bits/(Pixel*Frame) : 0.094
Stream size : 305 MiB (94%)
Language : English
Encoded date : UTC 2011-03-11 10:07:16
Tagged date : UTC 2011-03-11 10:07:16

Audio
ID : 1
Format : AAC
Format/Info : Advanced Audio Codec
Format version : Version 4
Format profile : LC
Codec ID : 40
Duration : 21mn 53s
Bit rate mode : Constant
Bit rate : 128 Kbps
Channel(s) : 2 channels
Channel positions : Front: L R
Sampling rate : 44.1 KHz
Stream size : 20.0 MiB (6%)
Language : English
Encoded date : UTC 2011-03-11 10:07:16
Tagged date : UTC 2011-03-11 10:07:16
Внимание! Раздача ведётся путём добавления новых серий; при каждом добавлении создётся новый торрент. Чтобы начать докачку новой серии, пользователям необходимо сделать следующее: (1) остановить скачивание, (2) удалить старый торрент у себя из клиента (старые серии удалять не надо), (3) скачать новый торрент и запустить его у себя в клиенте вместо старого, при этом указать клиенту путь в старую папку куда и должно происходить скачивание новых серий.
Ваш клиент при этом должен произвести хеширование (проверку) старой папки (если не производит сам - помогите ему сделать это), и будет докачивать только те серии которых у вас ещё нет. Старые серии при этом не удаляются, а продолжают раздаваться!
Eсли вы уже удалили старые серии, то предотвратить повторную закачку старых серий можно, отжав галочку в соответсвующих местах при запуске нового торрента.




   Похожие торренты   Торрент   Размер 
В этой теме нет новых непрочитанных сообщений. Тик / The Tick [01x01] (2016) WEBRip 720p | Jaskier

647 | 28

669 МБ

В этой теме нет новых непрочитанных сообщений. Герой ее романа (2001) DVDRip от NovaLan

4 | 6

1.39 ГБ

В этой теме нет новых непрочитанных сообщений. Мой босс, мой герой / Doosaboo ilchae (2001) DVDRip

1 | 2

835.11 МБ

В этой теме нет новых непрочитанных сообщений. Последний герой 1 - 6 + Сердце Африки [2001-2009] DVDRip-VHSRip-SATRip

10 | 44

66.31 ГБ

В этой теме нет новых непрочитанных сообщений. Мой босс - мой герой / My Boss My Hero / Doosaboo ilchae (2001) DVDRip от BTT-TEAM

0 | 1

1.46 ГБ

В этой теме нет новых непрочитанных сообщений. Последний герой 1. Остаться в живых (2001) VHSRip

9 | 29

10.33 ГБ

В этой теме нет новых непрочитанных сообщений. Всему свое время / What Makes You Tick Stitch in Tim (2012) PC

3 | 2

64.44 МБ




Вы не можете начинать темы
Вы не можете отвечать на сообщения
Вы не можете редактировать свои сообщения
Вы не можете удалять свои сообщения
Вы не можете добавлять вложения

Перейти:  
Для Мосгорсуда, Роскомнадзора и рекламодателей: mosgorsud-torrent[собачка]yandex.ru
 Вход
ppkBB3cker v.2 © 2008-2014 @ PPK
[ Time : 0.035s | 16 Queries | GZIP : Off ]

Торрент трекер RUTOR.IN, Не можете зайти на rutor.org? Какой новый адрес рутор? Какое зеркало рутор? Не работает rutor.org и зеркала? Тогда наш торрент специально для вас. Rutor.in неофициальное зеркало rutor. В случае если у Вас заблокирован rutor или вдруг Вы не можете на него зайти, то Вы без труда сможете скачать бесплатно и без рекламы последние новинки кино, игр, сериалов и прочего у нас, на Rutor.in. Не нужно использовать прокси, чтобы зайти на рутор, достаточно воспользоваться нашим ресурсом. Все новые фильмы, игры, сериалы, книги и музыка за 2013 и 2014 годы через торрент бесплатно. Скачивайте фильмы в хорошем качестве, игры для пк, xbox, playstation без регистрации. У нас вы найдете новые Зарубежные сериалы и Русские сериалы 2013, 2014, 2015 годов. Оставайтесь с нами, качайте любимые фильмы, игры, сериалы, книги и музыку.