img image001 image001 image001 image001 image001 image001 image001 image001 image001 image001 image001 image001 image001 image001 image001

Planets Sun Sun Sun
Статистика раздачи
Автор: Снежана | Размер: 23.77 ГБ | Добавлен: 25 июл 2013
Раздают: 18    Качают: 6
Скачать торрент
Скачать торрент
Описание торрента

СообщениеДобавлено: 25 июл 2013 

#77

Информация о фильме
Название: Лютер
Оригинальное название: Luther
Год выхода: 2010
Жанр: драма, детектив
Режиссер: Браян Кирк / Brian Kirk
В ролях: Идрис Эльба, Рут Уилсон, Стивен Макинтош, Индира Варма, Саския Ривз, Уоррен Браун, Пол МакГэнн и Дермот Краули и др.

О фильме:
Драматическая психологическая картина, в которой рассказывается о детективе, обладающем гениальными способностями в своём деле, однако скрывающем своих внутренних демонов. На самом деле он способен на такие же страшные преступления, что и те отбросы общества, за которыми он охотится…



Страна: Великобритания
Студия: Студия-изготовитель, если известна
Продолжительность: ~ 00:58:00
Перевод: Профессиональный (двухголосый закадровый) Кубик в Кубе

Релиз от:

Файл
Качество видео: HDTV 1080i
Формат: AVC
Видео кодек: H.264
Аудио кодек: AC3
Видео: 1934 x 1088i at 25.000 fps, MPEG-4 AVC, ~9.49 Mbps avg
Аудио Rus: 48 kHz, AC3 Dolby Digital, 2/0 (L,R) ch, ~192.00 kbps avg
Аудио Eng: 48 kHz, AC3 Dolby Digital, 2/0 (L,R) ch, ~192.00 kbps avg
Субтитры: Русские (elle elettrica), Английские
Семпл

1. Эпизод #1
2. Эпизод #2
3. Эпизод #3
4. Эпизод #4
5. Эпизод #5
6. Эпизод #6

Видео
Идентификатор : 4113 (0x1011)
Идентификатор меню : 1 (0x1)
Формат : AVC
Формат/Информация : Advanced Video Codec
Профиль формата : High@L4.0
Параметр CABAC формата : Да
Параметр ReFrames формата : 4 кадры
Идентификатор кодека : 27
Продолжительность : 58 м.
Вид битрейта : Переменный
Битрейт : 9661 Кбит/сек
Максимальный битрейт : 40,0 Мбит/сек
Ширина : 1934 пикс.
Высота : 1088 пикс.
Соотношение сторон : 16:9
Частота кадров : 25,000 кадр/сек
Цветовое пространство : YUV
Подвыборка цветности : 4:2:0
Битовая глубина : 8 бит
Тип развёртки : Чересстрочная
Порядок развёртки : Верхнее поле первое
Бит/(Пиксели*Кадры) : 0.248
Размер потока : 3,93 Гбайт (92%)
Основные цвета : BT.709-5, BT.1361, IEC 61966-2-4, SMPTE RP177
Характеристики трансфера : BT.709-5, BT.1361
Коэффициенты матрицы : BT.709-5, BT.1361, IEC 61966-2-4 709, SMPTE RP177

Аудио #1
Идентификатор : 4352 (0x1100)
Идентификатор меню : 1 (0x1)
Формат : AC-3
Формат/Информация : Audio Coding 3
Расширение режима : CM (complete main)
Идентификатор кодека : 129
Продолжительность : 58 м.
Вид битрейта : Постоянный
Битрейт : 192 Кбит/сек
Канал(ы) : 2 канала(ов)
Расположение каналов : Front: L R
Частота : 48,0 КГц
Битовая глубина : 16 бит
Метод сжатия : С потерями
Размер потока : 79,9 Мбайт (2%)
Язык : Russian

Аудио #2
Идентификатор : 4353 (0x1101)
Идентификатор меню : 1 (0x1)
Формат : AC-3
Формат/Информация : Audio Coding 3
Расширение режима : CM (complete main)
Идентификатор кодека : 129
Продолжительность : 58 м.
Вид битрейта : Постоянный
Битрейт : 192 Кбит/сек
Канал(ы) : 2 канала(ов)
Расположение каналов : Front: L R
Частота : 48,0 КГц
Битовая глубина : 16 бит
Метод сжатия : С потерями
Размер потока : 79,9 Мбайт (2%)
Язык : English

Внимание! Раздача ведётся путём добавления новых серий; при каждом добавлении создётся новый торрент. Чтобы начать докачку новой серии, пользователям необходимо сделать следующее:
(1) остановить скачивание,
(2) удалить старый торрент у себя из клиента (старые серии удалять не надо),
(3) скачать новый торрент и запустить его у себя в клиенте вместо старого, при этом указать клиенту путь в старую папку куда и должно происходить скачивание новых серий.


Ваш клиент при этом должен произвести хеширование (проверку) старой папки (если не производит сам - помогите ему сделать это), и будет докачивать только те серии которых у вас ещё нет. Старые серии при этом не удаляются, а продолжают раздаваться!


Eсли вы уже удалили старые серии, то предотвратить повторную закачку старых серий можно, отжав галочку в соответсвующих местах при запуске нового торрента.




   Похожие торренты   Торрент   Размер 
В этой теме нет новых непрочитанных сообщений. Лютер / Luther [S04] (2015) HDTV 720p | Jaskier

1292 | 210

2.04 ГБ

В этой теме нет новых непрочитанных сообщений. Лютер / Luther [04х01 из ?] (2015) HDTV 720p | Jaskier

370 | 7

1.02 ГБ

В этой теме нет новых непрочитанных сообщений. Лютер / Luther [S04] (2015) HDTV 720p | Gears Media

156 | 21

2.34 ГБ

В этой теме нет новых непрочитанных сообщений. Лютер / Luther [04х01 из 02] (2015) HDTV 720p | Gears Media

103 | 1

1.15 ГБ

В этой теме нет новых непрочитанных сообщений. Лютер / Luther [S01] (2010) DVDRip

74 | 6

3.53 ГБ

В этой теме нет новых непрочитанных сообщений. Лютер / Luther [S01] (2010) HDTVRip Fox Crime

175 | 65

4.1 ГБ

В этой теме нет новых непрочитанных сообщений. Лютер / Luther [S01] (2010) HDTVRip | Кубик в Кубе

166 | 35

3.52 ГБ




Вы не можете начинать темы
Вы не можете отвечать на сообщения
Вы не можете редактировать свои сообщения
Вы не можете удалять свои сообщения
Вы не можете добавлять вложения

Перейти:  
Для Мосгорсуда, Роскомнадзора и рекламодателей: mosgorsud-torrent[собачка]yandex.ru
 Вход
ppkBB3cker v.2 © 2008-2014 @ PPK
[ Time : 0.047s | 17 Queries | GZIP : Off ]

Торрент трекер RUTOR.IN, Не можете зайти на rutor.org? Какой новый адрес рутор? Какое зеркало рутор? Не работает rutor.org и зеркала? Тогда наш торрент специально для вас. Rutor.in неофициальное зеркало rutor. В случае если у Вас заблокирован rutor или вдруг Вы не можете на него зайти, то Вы без труда сможете скачать бесплатно и без рекламы последние новинки кино, игр, сериалов и прочего у нас, на Rutor.in. Не нужно использовать прокси, чтобы зайти на рутор, достаточно воспользоваться нашим ресурсом. Все новые фильмы, игры, сериалы, книги и музыка за 2013 и 2014 годы через торрент бесплатно. Скачивайте фильмы в хорошем качестве, игры для пк, xbox, playstation без регистрации. У нас вы найдете новые Зарубежные сериалы и Русские сериалы 2013, 2014, 2015 годов. Оставайтесь с нами, качайте любимые фильмы, игры, сериалы, книги и музыку.