img image001 image001 image001 image001 image001 image001 image001 image001 image001 image001 image001 image001 image001 image001 image001

Planets Sun Sun Sun
Статистика раздачи
Автор: Снежана | Размер: 4.36 ГБ | Добавлен: 25 июл 2013
Раздают: 0    Качают: 3
Скачать торрент
Скачать торрент
Описание торрента

СообщениеДобавлено: 25 июл 2013 

#77

Год выпуска: 2011
Производство: Россия-Украина, Film.UA
Жанр: Военный
Продолжительность: 4*00:44:00 (176 минут)
Режиссёр: Александр БерезаньВ ролях: Евгения Хиривская, Дмитрий Орлов, Александр Кобзарь, Виктория Малекторович, Сергей Калантай, Дирк Мартенс, Евгений Ермаков, Юрий Шульган, Михаил Жонин, Владимир Левицкий...
Описание: В октябре 1941 советские люди еще верили, что война с немцами не продлится дольше нескольких месяцев. Тем не менее по приказу руководства в тыл перевозят не только заводы, но и исторические ценности. В небольшом городке эвакуируют музей, уютно разместившийся в старинном монастыре. Молодая девушка Ася, ее отец-профессор, да его заместитель Феденька — вот и вся охрана, на которую возложена миссия спасти для народа культурное достояние. Среди прочих экспонатов есть один особенный — он должен стать основой для выставки под патронатом самого товарища Сталина, но и у немцев на эту вещицу есть планы.
Путь неблизкий, а дорога полна опасностей. Случается так, что вместо родных людей сопровождать Асеньку станет совсем чужой человек, судьба которого полна неприятных загадок, а повадки и привычки заставляют скорее опасаться его, чем доверять… но одной ей не выжить.

1.Удалено предупреждение вначале воспроизведения
2.Пережато программой (8 проходов)DVD Rebuilder+CCE
Меню озвученное, анимированное. Автор рипа _PlusMinus_

Видео
Идентификатор : 224 (0xE0)
Формат : MPEG Video
Версия формата : Version 2
Профиль формата : Main@Main
Параметр BVOP формата : Да
Параметр матрицы формата : По умолчанию
Продолжительность : 41 м.
Вид битрейта : Переменный
Битрейт : 3161 Кбит/сек
Номинальный битрейт : 8393 Кбит/сек
Ширина : 720 пикс.
Высота : 576 пикс.
Соотношение сторон : 16:9
Частота кадров : 25,000 кадр/сек
Стандарт вещания : PAL
Цветовое пространство : YUV
Подвыборка цветности : 4:2:0
Битовая глубина : 8 бит
Тип развёртки : Чересстрочная
Порядок развёртки : Верхнее поле первое
Метод сжатия : С потерями
Бит/(Пиксели*Кадры) : 0.305
Размер потока : 946 Мбайт (92%)

Аудио
Идентификатор : 189 (0xBD)-128 (0x80)
Формат : AC-3
Формат/Информация : Audio Coding 3
Расширение режима : CM (complete main)
Режим смешивания : DVD-Video
Продолжительность : 41 м.
Вид битрейта : Постоянный
Битрейт : 192 Кбит/сек
Каналы : 2 канала
Расположение каналов : Front: L R
Частота : 48,0 КГц
Битовая глубина : 16 бит
Метод сжатия : С потерями
Размер потока : 57,5 Мбайт (6%)

Качество: DVD5
Формат: DVD-Video
Видео кодек: MPEG2
Аудио кодек: AC3
Видео: PAL 16:9 (720x576) VBR ~ 3395.49 kbps avg
Аудио: Russian (Dolby AC3, 2 ch) L R 192 Кбит/сек
Сэмпл




   Похожие торренты   Торрент   Размер 
В этой теме нет новых непрочитанных сообщений. Доставить любой ценой (2011) BDRip-AVC

34 | 6

2.1 ГБ

В этой теме нет новых непрочитанных сообщений. Доставить любой ценой [01-04 из 04] (2011) SATRip

2 | 6

1.99 ГБ

В этой теме нет новых непрочитанных сообщений. Доставить любой ценой [01-04 из 4] (2011) DVDRip-AVC

47 | 9

2.61 ГБ

В этой теме нет новых непрочитанных сообщений. Доставить любой ценой [01-04 из 04] (2011) DVDRip Jonni3009

20 | 3

1.96 ГБ

В этой теме нет новых непрочитанных сообщений. Доставить любой ценой [01-04 из 04] (2011) DVDRip | КПК от Kino@rena

9 | 1

577.33 МБ

В этой теме нет новых непрочитанных сообщений. Рио / Rio (2011) DVD5 | Сжатый

2 | 2

4.36 ГБ

В этой теме нет новых непрочитанных сообщений. Суходол (2011) DVD5 | Сжатый

0 | 2

4.36 ГБ




Вы не можете начинать темы
Вы не можете отвечать на сообщения
Вы не можете редактировать свои сообщения
Вы не можете удалять свои сообщения
Вы не можете добавлять вложения

Перейти:  
Для Мосгорсуда, Роскомнадзора и рекламодателей: mosgorsud-torrent[собачка]yandex.ru
 Вход
ppkBB3cker v.2 © 2008-2014 @ PPK
[ Time : 0.670s | 15 Queries | GZIP : On ]

Торрент трекер RUTOR.IN, Не можете зайти на rutor.org? Какой новый адрес рутор? Какое зеркало рутор? Не работает rutor.org и зеркала? Тогда наш торрент специально для вас. Rutor.in неофициальное зеркало rutor. В случае если у Вас заблокирован rutor или вдруг Вы не можете на него зайти, то Вы без труда сможете скачать бесплатно и без рекламы последние новинки кино, игр, сериалов и прочего у нас, на Rutor.in. Не нужно использовать прокси, чтобы зайти на рутор, достаточно воспользоваться нашим ресурсом. Все новые фильмы, игры, сериалы, книги и музыка за 2013 и 2014 годы через торрент бесплатно. Скачивайте фильмы в хорошем качестве, игры для пк, xbox, playstation без регистрации. У нас вы найдете новые Зарубежные сериалы и Русские сериалы 2013, 2014, 2015 годов. Оставайтесь с нами, качайте любимые фильмы, игры, сериалы, книги и музыку.
cron