img image001 image001 image001 image001 image001 image001 image001 image001 image001 image001 image001 image001 image001 image001 image001

Planets Sun Sun Sun
Статистика раздачи
Автор: Снежана | Размер: 7.16 ГБ | Добавлен: 25 июл 2013
Раздают: 0    Качают: 3
Скачать торрент
Скачать торрент
Описание торрента

СообщениеДобавлено: 25 июл 2013 

#77

Год выпуска: 2010
Производство: Компания "Студия Стар-Т"
Жанр: Боевик, драма, детектив
Продолжительность: 367 минут
Субтитры: Отсутствуют
Режиссёр: Олег Фомин
В ролях: Олег Фомин, Сергей Юрский, Всеволод Шиловский, Александр Пороховщиков, Екатерина Волкова, Алексей Агранович, Диана Морозова, Александр Пашутин, Павел Абдалов, Владимир Капустин, Александр Яцко, Михаил Евланов, Александр Песков
Описание: Сериал снят по роману Александра Звягинцева "Естественный отбор". Действие происходит в 90-е года прошлого века - тяжелое для России время. Три друга - бывший афганец Игорь Скворцов, Семен Засечный и Александр Алексеев, возвращаются в Россию, отслужив добровольцами в Сербии. Друзья удивлены нетеплым приемом, который им оказали на Родине. За ними начинают охотиться спецслужбы, у Скифа похищают дочь, а его жене угрожают. Что нужно спецслужбам от главных героев?

Файл:
Видео
Идентификатор : 224 (0xE0)
Формат : MPEG Video
Версия формата : Version 2
Профиль формата : Main@Main
Параметр BVOP формата : Да
Параметр матрицы формата : По умолчанию
Продолжительность : 7 м. 37 с.
Вид битрейта : Переменный
Битрейт : 18,2 Мбит/сек
Номинальный битрейт : 9000 Кбит/сек
Ширина : 720 пикс.
Высота : 576 пикс.
Соотношение сторон : 4:3
Частота кадров : 25,000 кадр/сек
Стандарт вещания : PAL
Цветовое пространство : YUV
Подвыборка цветности : 4:2:0
Битовая глубина : 8 бит
Тип развёртки : Чересстрочная
Порядок развёртки : Верхнее поле первое
Метод сжатия : С потерями
Бит/(Пиксели*Кадры) : 1.757
Размер потока : 993 Мбайт (97%)

Аудио
Идентификатор : 189 (0xBD)-128 (0x80)
Формат : AC-3
Формат/Информация : Audio Coding 3
Расширение режима : CM (complete main)
Режим смешивания : DVD-Video
Продолжительность : 7 м. 37 с.
Вид битрейта : Постоянный
Битрейт : 192 Кбит/сек
Каналы : 2 канала
Расположение каналов : Front: L R
Частота : 48,0 КГц
Битовая глубина : 16 бит
Метод сжатия : С потерями
Размер потока : 10,5 Мбайт (1%)

Качество: DVD9
Формат: DVD-Video
Видео кодек: MPEG2
Аудиокодек: AC3
Видео: PAL 4:3 (720x576@768x576) VBR ~ 9 000 Кбит/сек, 0.868 Бит/(Пиксели*Кадры)
Аудио: Russian (Dolby AC3, 48000 Hz, 2 ch, 192 kbps)





   Похожие торренты   Торрент   Размер 
В этой теме нет новых непрочитанных сообщений. Естественный отбор [01-08 из 08] (2010) DVDRip

751 | 67

4.34 ГБ

В этой теме нет новых непрочитанных сообщений. Естественный отбор [01-08 из 08] (2010) DVDRip - КинозалSAT

106 | 19

4.3 ГБ

В этой теме нет новых непрочитанных сообщений. Естественный отбор / Natural Selection (2016) WEB-DLRip | L

795 | 129

1.37 ГБ

В этой теме нет новых непрочитанных сообщений. Естественный отбор / Natural Selection (2016) WEB-DL 720p | L

235 | 81

3.2 ГБ

В этой теме нет новых непрочитанных сообщений. Джон Пегано / John Pegano - Лечение псориаза. Естественный путь / Healing Psoriasis (2010) EPUB

28 | 2

328.28 КБ

В этой теме нет новых непрочитанных сообщений. Чат / Chatroom (2010) DVD9 | Лицензия

0 | 1

7.76 ГБ

В этой теме нет новых непрочитанных сообщений. Пила 7 / Saw 7 (2010) DVD9 | лицензия

1 | 11

6.02 ГБ




Вы не можете начинать темы
Вы не можете отвечать на сообщения
Вы не можете редактировать свои сообщения
Вы не можете удалять свои сообщения
Вы не можете добавлять вложения

Перейти:  
Для Мосгорсуда, Роскомнадзора и рекламодателей: mosgorsud-torrent[собачка]yandex.ru
 Вход
ppkBB3cker v.2 © 2008-2014 @ PPK
[ Time : 0.063s | 15 Queries | GZIP : Off ]

Торрент трекер RUTOR.IN, Не можете зайти на rutor.org? Какой новый адрес рутор? Какое зеркало рутор? Не работает rutor.org и зеркала? Тогда наш торрент специально для вас. Rutor.in неофициальное зеркало rutor. В случае если у Вас заблокирован rutor или вдруг Вы не можете на него зайти, то Вы без труда сможете скачать бесплатно и без рекламы последние новинки кино, игр, сериалов и прочего у нас, на Rutor.in. Не нужно использовать прокси, чтобы зайти на рутор, достаточно воспользоваться нашим ресурсом. Все новые фильмы, игры, сериалы, книги и музыка за 2013 и 2014 годы через торрент бесплатно. Скачивайте фильмы в хорошем качестве, игры для пк, xbox, playstation без регистрации. У нас вы найдете новые Зарубежные сериалы и Русские сериалы 2013, 2014, 2015 годов. Оставайтесь с нами, качайте любимые фильмы, игры, сериалы, книги и музыку.