img image001 image001 image001 image001 image001 image001 image001 image001 image001 image001 image001 image001 image001 image001 image001

Planets Sun Sun Sun
Статистика раздачи
Автор: Снежана | Размер: 4.36 ГБ | Добавлен: 25 июл 2013
Раздают: 0    Качают: 2
Скачать торрент
Скачать торрент
Описание торрента

СообщениеДобавлено: 25 июл 2013 

#77

Страна: Россия
Студия: СМИ г. Москвы при участии Мосфильм
Жанр: киноповесть, экранизация
Год выпуска: 2005
Продолжительность: 203 мин (00:50:31+00:51:43+00:50:43+00:50:34)
Перевод: Не требуется
Cубтитры: нет
Режиссер: Илья Макаров
В ролях: Игорь Гордин, Александр Лазарев (младший), Евгения Крюкова, Владимир Ильин, Владимир Жарков, Валерия Суркова, Александр Пороховщиков, Семён Стругачёв, Олег Гущин, Елена Сафонова, Мария Звонарева, Александр Наумов, Юрий Ильин, Глеб Матвейчук, Валерий Сидоров, Марат Башаров, Андрей Ильин и другие

Описание: Два главных героя - друзья детства. Они вместе росли, вместе поступили в летное училище, вместе попадают на арабо-израильскую войну 1973 года. Жизнь их разводит и снова сталкивает во времена перестройки, когда профессия летчика становится непопулярной. Влюбляются они тоже в одну и ту же девушку, возникает классический любовный треугольник. Соперничество продолжается до самых седин...
По мотивам книги Валерия Меницкого "Моя небесная жизнь".

Доп. информация:
Сценаристы: Юрий Коротков, Игорь Мужжухин (уч.)
Оператор: Алексей Федоров
Композитор: Андрей Петров
Художник: Александр Гиляревский

Производство: Авиапарк, АВИАТИКА, Комитет по телекоммуникациям и СМИ г. Москвы при участии Мосфильм
Год: 2005
Cерий: 4

Воспоминания легендарного летчика Валерия Меницкого, который "учил" летать "МИГи", стали непосредственным толчком для создания фильма. Отдельного упоминания заслуживает бюджет. Он позволил задействовать на съемках 30 самолетов (4 из них разбиваются), в том числе "МИГ -25", который ранее никогда не показывался в кино. Съемки проходили в шести странах, в том числе, во Франции, США и Египте. А также в засекреченном Центральном аэрогидродинамическом институте им. Н. Е. Жуковского.

Бонусы: отсутствуют
Меню: анимированное / озвученное
Спасибо говорим ilya_l
Сэмпл: http://multi-up.com/528146, и http://ifolder.ru/24875541

Тип релиза: DVD5
Контейнер: DVD-Video
Видео: MPEG2 Video 720x576 (4:3) 25.00fps VBR~ 3054.93 kbps avg [Video]
Аудио: Dolby AC3 48000Hz 6ch 384Kbps [AC-3]
Полное имя : /Небесная жизньVIDEO_TSVTS_01_1.VOB
Формат : MPEG-PS
Размер файла : 1024 Мбайт
Продолжительность : 47 м.
Общий поток : 3004 Кбит/сек
Видео
Идентификатор : 224 (0xE0)
Формат : MPEG Video
Версия формата : Version 2
Профиль формата : Main@Main
Параметр BVOP формата : Да
Параметр матрицы формата : По умолчанию
Продолжительность : 47 м.
Вид битрейта : Переменный
Битрейт : 2560 Кбит/сек
Номинальный битрейт : 9000 Кбит/сек
Ширина : 720 пикс.
Высота : 576 пикс.
Соотношение сторон : 4:3
Частота кадров : 25,000 кадр/сек
Стандарт вещания : PAL
Цветовое пространство : YUV
Подвыборка цветности : 4:2:0
Битовая глубина : 8 бит
Тип развёртки : Чересстрочная
Порядок развёртки : Верхнее поле первое
Метод сжатия : С потерями
Бит/(Пиксели*Кадры) : 0.247
Размер потока : 873 Мбайт (85%)
Аудио
Идентификатор : 189 (0xBD)-128 (0x80)
Формат : AC-3
Формат/Информация : Audio Coding 3
Расширение режима : CM (complete main)
Режим смешивания : DVD-Video
Продолжительность : 47 м.
Вид битрейта : Постоянный
Битрейт : 384 Кбит/сек
Каналы : 6 каналов
Расположение каналов : Front: L C R, Side: L R, LFE
Частота : 48,0 КГц
Битовая глубина : 16 бит
Метод сжатия : С потерями
Размер потока : 131 Мбайт (13%)





   Похожие торренты   Торрент   Размер 
В этой теме нет новых непрочитанных сообщений. Небесная жизнь [01-04 из 4] (2005) DVDRip - Files-X

5 | 155

2.74 ГБ

В этой теме нет новых непрочитанных сообщений. Небесная земля / Небесная страна / Skyland [S01] (2004) DVDRip

31 | 3

9.44 ГБ

В этой теме нет новых непрочитанных сообщений. Синяя ласточка / Небесная ласточка / Cheong yeon / Blue Swallow (2005) DVDRip | L2

2 | 0

2.06 ГБ

В этой теме нет новых непрочитанных сообщений. Высший пилотаж / школа "Небесная Высь" / Sky High (2005) HDTV 720p

144 | 2

4.48 ГБ

В этой теме нет новых непрочитанных сообщений. Синяя ласточка / Небесная ласточка / Blue Swallow / Cheung yeon (2005) DVDRip GREEN TEA

0 | 1

2.18 ГБ

В этой теме нет новых непрочитанных сообщений. Rudy Rotta - B&W Blues Festival 2004 - 2005 (2005) DVD5 от Brazzass

43 | 13

4.14 ГБ

В этой теме нет новых непрочитанных сообщений. Glass Tiger - No Turning Back 1985 - 2005 (2005) DVD5 от Brazzass

21 | 27

4.36 ГБ




Вы не можете начинать темы
Вы не можете отвечать на сообщения
Вы не можете редактировать свои сообщения
Вы не можете удалять свои сообщения
Вы не можете добавлять вложения

Перейти:  
Для Мосгорсуда, Роскомнадзора и рекламодателей: mosgorsud-torrent[собачка]yandex.ru
 Вход
ppkBB3cker v.2 © 2008-2014 @ PPK
[ Time : 0.039s | 14 Queries | GZIP : Off ]

Торрент трекер RUTOR.IN, Не можете зайти на rutor.org? Какой новый адрес рутор? Какое зеркало рутор? Не работает rutor.org и зеркала? Тогда наш торрент специально для вас. Rutor.in неофициальное зеркало rutor. В случае если у Вас заблокирован rutor или вдруг Вы не можете на него зайти, то Вы без труда сможете скачать бесплатно и без рекламы последние новинки кино, игр, сериалов и прочего у нас, на Rutor.in. Не нужно использовать прокси, чтобы зайти на рутор, достаточно воспользоваться нашим ресурсом. Все новые фильмы, игры, сериалы, книги и музыка за 2013 и 2014 годы через торрент бесплатно. Скачивайте фильмы в хорошем качестве, игры для пк, xbox, playstation без регистрации. У нас вы найдете новые Зарубежные сериалы и Русские сериалы 2013, 2014, 2015 годов. Оставайтесь с нами, качайте любимые фильмы, игры, сериалы, книги и музыку.