img image001 image001 image001 image001 image001 image001 image001 image001 image001 image001 image001 image001 image001 image001 image001

Planets Sun Sun Sun
Статистика раздачи
Автор: Снежана | Размер: 33.01 ГБ | Добавлен: 25 июл 2013
Раздают: 8    Качают: 7
Скачать торрент
Скачать торрент
Описание торрента

СообщениеДобавлено: 25 июл 2013 

#77
Записки экспедитора тайной канцелярии / 1 сезон / 8 серий из 8 / 4xDVD5
Год выпуска: 2010
Производство: Россия, BFT Movie, ВГТРК
Жанр: детектив, приключения, история
Продолжительность: 371 мин.
Субтитры: нет
Режиссер: Олег Рясков
В ролях: Илья Соколовский, Екатерина Редникова, Сергей Чонишвили, Михаил Полицеймако, Марина Могилевская, Дарья Мельникова, Анастасия Горькова, Максим Дахненко, Александр Гришин, Андрей Чубченко...
Описание: К князю Меньшикову приезжает посланец ордена масонов с планом женить наследника престола на дочери серого кардинала. В это же время князя посещает молодой офицер Самойлов. Он получает задание, которое, проявив смекалку и отвагу, с блеском выполняет. После этого глава Тайной канцелярии Ушаков обращает внимание на находчивого офицера и благодаря ловкой интриге вынуждает его поступить на службу в свое ведомство. Теперь Ивана ждут головокружительные приключения — охота за серийным убийцей, расследование смерти пожилого дворянина в доме терпимости, попытка разобраться в кознях прародителя зла и др.

Файл:
Видео
Идентификатор : 224 (0xE0)
Формат : MPEG Video
Версия формата : Version 2
Профиль формата : Main@Main
Параметр BVOP формата : Да
Параметр матрицы формата : По умолчанию
Продолжительность : 25 м.
Вид битрейта : Переменный
Битрейт : 4994 Кбит/сек
Номинальный битрейт : 7000 Кбит/сек
Ширина : 720 пикс.
Высота : 576 пикс.
Соотношение сторон : 4:3
Частота кадров : 25,000 кадр/сек
Стандарт вещания : PAL
Цветовое пространство : YUV
Подвыборка цветности : 4:2:0
Битовая глубина : 8 бит
Тип развёртки : Чересстрочная
Порядок развёртки : Верхнее поле первое
Метод сжатия : С потерями
Бит/(Пиксели*Кадры) : 0.482
Размер потока : 921 Мбайт (90%)

Аудио
Идентификатор : 189 (0xBD)-128 (0x80)
Формат : AC-3
Формат/Информация : Audio Coding 3
Расширение режима : CM (complete main)
Режим смешивания : DVD-Video
Продолжительность : 25 м.
Вид битрейта : Постоянный
Битрейт : 448 Кбит/сек
Каналы : 6 каналов
Расположение каналов : Front: L C R, Side: L R, LFE
Частота : 48,0 КГц
Битовая глубина : 16 бит
Метод сжатия : С потерями
Размер потока : 82,6 Мбайт (8%)


Тип релиза: 4хDVD5 (custom), источник 2xDVD9 R5
Контейнер: DVD Video
Видео: PAL 4:3 (720x576) ~4994 kbps, VBR, Auto Pan&Scan
Аудио: 48 kHz, AC3, 6 ch, 448.00 kbps Constant
Меню: анимированное
Доп. материалы: Фильмография, Анонсы новых фильмов, Создатели и исполнители
В первом сезоне меню хитрое, кнопки находятся на отдельном слое и видно их только при воспроизведении, поэтому надписи о ненужных сериях в меню удалить не удалось, хотя сами ненужные кнопки конечно деактивировал. Просто при помощи DVDRemake разбил 2 DVD9 на 4 DVD5. Всю рекламу и предупреждающие надписи удалил, все допы оставил, поскольку размер позволял.
Автор рипа avproh

Сэмпл Обложка и блины от DVD9 R5


Записки экспедитора тайной канцелярии / 2 сезон / 8 серий из 8 / 4xDVD5

Год выпуска: 2011
Производство: Россия, BFT Movie, ВГТРК
Жанр: детектив, история
Продолжительность: 371 мин.
Субтитры: нет
Режиссер: Олег Рясков
В ролях: Сергей Чонишвили, Петр Красилов, Илья Соколовский, Анна Снаткина, Степан Коршунов, Михаил Полицеймако, Екатерина Юдина, Дарья Мельникова, Андрей Рыклин, Максим Дахненко...
Описание: События происходят после смерти Петра Первого. Морской офицер Семен Плахов обвинен в убийстве фискального чиновника. Начальник тайной розыскной канцелярии Ушаков посылает этого офицера с важным поручением, освобождая его из-под стражи. С этого момента начинаются морские приключения. Во втором сезоне фильма присутствуют наряду с новыми героями герои первого сезона. Герои кинофильма побывают в Лондоне, в Новом Свете. Им предстоит сражаться с пиратами, побывать в плену у индейцев. Герои попытаются спасти от позорного рабства красавицу, которую беспутный братец проиграет в карты.

Файл:
Видео
Идентификатор : 224 (0xE0)
Формат : MPEG Video
Версия формата : Version 2
Профиль формата : Main@Main
Параметр BVOP формата : Да
Параметр матрицы формата : По умолчанию
Продолжительность : 25 м.
Вид битрейта : Переменный
Битрейт : 4994 Кбит/сек
Номинальный битрейт : 7000 Кбит/сек
Ширина : 720 пикс.
Высота : 576 пикс.
Соотношение сторон : 4:3
Частота кадров : 25,000 кадр/сек
Стандарт вещания : PAL
Цветовое пространство : YUV
Подвыборка цветности : 4:2:0
Битовая глубина : 8 бит
Тип развёртки : Чересстрочная
Порядок развёртки : Нижнее поле первое
Метод сжатия : С потерями
Бит/(Пиксели*Кадры) : 0.482
Размер потока : 921 Мбайт (90%)

Аудио
Идентификатор : 189 (0xBD)-128 (0x80)
Формат : AC-3
Формат/Информация : Audio Coding 3
Расширение режима : CM (complete main)
Режим смешивания : DVD-Video
Продолжительность : 25 м.
Вид битрейта : Постоянный
Битрейт : 448 Кбит/сек
Каналы : 6 каналов
Расположение каналов : Front: L C R, Side: L R, LFE
Частота : 48,0 КГц
Битовая глубина : 16 бит
Метод сжатия : С потерями
Размер потока : 82,6 Мбайт (8%)


Тип релиза: 4хDVD5 (custom), источник 2xDVD9 R5
Контейнер: DVD Video
Видео: PAL 4:3 (720x576) ~4994 kbps, VBR, Auto Pan&Scan
Аудио: 48 kHz, AC3, 6 ch, 448.00 kbps Constant
Меню: анимированное
Доп. материалы: Трейлер, Каталог, Смотрите на DVD, Создатели и исполнители
ВПросто при помощи DVDRemake разбил 2 DVD9 на 4 DVD5. Всю рекламу и предупреждающие надписи удалил, все допы оставил, поскольку размер позволял. Ненужные кнопки выбора серий затерты в фотошопе, вcтавлял картинки при помощи MuxMan и DVDRemake.
Автор рипа avproh

Сэмпл Обложка и блины от DVD9 R5


Раздача от группы:



   Похожие торренты   Торрент   Размер 
В этой теме нет новых непрочитанных сообщений. Записки экспедитора тайной канцелярии [S01-02] (2010-2011) DVDRip-AVC

352 | 115

15.67 ГБ

В этой теме нет новых непрочитанных сообщений. Записки экспедитора тайной канцелярии [S01] (2010) HDTVRip

163 | 32

4.71 ГБ

В этой теме нет новых непрочитанных сообщений. Записки экспедитора Тайной канцелярии [01-08 из 8] (2010) DVDRip - LOOK

147 | 13

4.14 ГБ

В этой теме нет новых непрочитанных сообщений. Записки экспедитора Тайной канцелярии [01-08 из 08] (2010) DVDRip от КинозалSAT

66 | 8

4.3 ГБ

В этой теме нет новых непрочитанных сообщений. Записки экспедитора Тайной канцелярии [S1-2: 01-16] (2010) DVDRip - КинозалSAT

240 | 27

10.16 ГБ

В этой теме нет новых непрочитанных сообщений. Записки экспедитора тайной канцелярии (2010) BDRip 720p

162 | 149

4.37 ГБ

В этой теме нет новых непрочитанных сообщений. Записки экспедитора Тайной канцелярии 2 (2011) BDRip 720p

978 | 83

4.37 ГБ




Вы не можете начинать темы
Вы не можете отвечать на сообщения
Вы не можете редактировать свои сообщения
Вы не можете удалять свои сообщения
Вы не можете добавлять вложения

Перейти:  
Для Мосгорсуда, Роскомнадзора и рекламодателей: mosgorsud-torrent[собачка]yandex.ru
 Вход
ppkBB3cker v.2 © 2008-2014 @ PPK
[ Time : 0.052s | 14 Queries | GZIP : On ]

Торрент трекер RUTOR.IN, Не можете зайти на rutor.org? Какой новый адрес рутор? Какое зеркало рутор? Не работает rutor.org и зеркала? Тогда наш торрент специально для вас. Rutor.in неофициальное зеркало rutor. В случае если у Вас заблокирован rutor или вдруг Вы не можете на него зайти, то Вы без труда сможете скачать бесплатно и без рекламы последние новинки кино, игр, сериалов и прочего у нас, на Rutor.in. Не нужно использовать прокси, чтобы зайти на рутор, достаточно воспользоваться нашим ресурсом. Все новые фильмы, игры, сериалы, книги и музыка за 2013 и 2014 годы через торрент бесплатно. Скачивайте фильмы в хорошем качестве, игры для пк, xbox, playstation без регистрации. У нас вы найдете новые Зарубежные сериалы и Русские сериалы 2013, 2014, 2015 годов. Оставайтесь с нами, качайте любимые фильмы, игры, сериалы, книги и музыку.