img image001 image001 image001 image001 image001 image001 image001 image001 image001 image001 image001 image001 image001 image001 image001

Planets Sun Sun Sun
Статистика раздачи
Автор: Снежана | Размер: 4.32 ГБ | Добавлен: 25 июл 2013
Раздают: 404    Качают: 19
Скачать торрент
Скачать торрент
Описание торрента

СообщениеДобавлено: 25 июл 2013 

#77

Страна: Россия
Год выпуска: 2010
Производство: Нон-стоп Продакшн, Телеканал Россия
Жанр: драма, биография
Продолжительность: 435 мин.
Субтитры: нет
Режиссер: Владимир Хотиненко
В ролях: Евгений Миронов, Чулпан Хаматова, Ольга Смирнова, Алла Юганова, Александр Домогаров, Дмитрий Певцов, Дарья Мороз, Юрий Степанов, Сергей Тарамаев, Леонид Окунёв...
Описание: Мини-сериал охватывает довольно большой период жизни Федора Михайловича — с момента разгрома кружка петрашевцев (декабрь 1849 г.) до написания «Братьев Карамазовых» (1879 г.). За это время в жизни Достоевского произошло множество драматических событий — ссылка в Сибирь, заграничный роман с Аполлинарией Сусловой, смерть от чахотки первой жены Марии Исаевой, сотрудничество с несколькими почвенническими журналами, встреча с Анной Сниткиной, смерть сына Алеши…


Релиз от:
Файл:
Общее
Полное имя : ....Достаевский_2010_DVDRip_SVATДостоевский_01 серия_2010_DVDRip_SVAT.avi
Формат : AVI
Формат/Информация : Audio Video Interleave
Размер файла : 552 Мбайт
Продолжительность : 53 м.
Общий поток : 1440 Кбит/сек
Программа кодирования : VirtualDubMod 1.5.10.3 | www.virtualdub-fr.org || (build 2550/release)
Библиотека кодирования : VirtualDubMod build 2550/release

Видео
Идентификатор : 0
Формат : MPEG-4 Visual
Профиль формата : Advanced Simple@L5
Параметр BVOP формата : 1
Параметр QPel формата : Нет
Параметр GMC формата : Без точки перехода
Параметр матрицы формата : Выборочная
Идентификатор кодека : XVID
Идентификатор кодека/Подсказка : XviD
Продолжительность : 53 м.
Битрейт : 1302 Кбит/сек
Ширина : 704 пикс.
Высота : 384 пикс.
Соотношение сторон : 16:9
Частота кадров : 25,000 кадр/сек
Цветовое пространство : YUV
Подвыборка цветности : 4:2:0
Битовая глубина : 8 бит
Тип развёртки : Прогрессивная
Метод сжатия : С потерями
Бит/(Пиксели*Кадры) : 0.193
Размер потока : 500 Мбайт (90%)
Библиотека кодирования : XviD 63

Аудио
Идентификатор : 1
Формат : MPEG Audio
Версия формата : Version 1
Профиль формата : Layer 3
Идентификатор кодека : 55
Идентификатор кодека/Подсказка : MP3
Продолжительность : 53 м.
Вид битрейта : Постоянный
Битрейт : 128 Кбит/сек
Каналы : 2 канала
Частота : 48,0 КГц
Метод сжатия : С потерями
Размер потока : 49,1 Мбайт (9%)
Выравнивание : Соединение по промежуткам
Продолжительность промежутка : 40 мс. (1,00 видеокадр)
Время предзагрузки промежутка : 504 ms
Библиотека кодирования : LAME3.98r
Настройки программы : -m s -V 4 -q 2 -lowpass 17 -b 128

Качество: DVDRip
Формат: AVI
Видео кодек: XviD
Аудиокодек: MP3
Видео: 704x384 (16/9), 25 fps, XviD MPEG-4 Visual, Битрейт ~1302 kbps avg, 0.193 bit/pixel
Аудио: 48000 kHz, MPEG 1 or 2 Audio Layer 3 (MP3), 128kbps



   Похожие торренты   Торрент   Размер 
В этой теме нет новых непрочитанных сообщений. Достоевский [01-08 из 08] (2010) 2xDVD5 от Youtracker | custom

54 | 3

7.78 ГБ

В этой теме нет новых непрочитанных сообщений. Фёдор Достоевский (2012) DVDRip

15 | 6

723.53 МБ

В этой теме нет новых непрочитанных сообщений. Достоевский Ф.М. - Бесы (2008) MP3

130 | 6

627.98 МБ

В этой теме нет новых непрочитанных сообщений. Достоевский Ф.М. - Идиот (2008) MP3

133 | 7

1.2 ГБ

В этой теме нет новых непрочитанных сообщений. Достоевский [01-07] (2011) SATRip

36 | 11

4.12 ГБ

В этой теме нет новых непрочитанных сообщений. Достоевский Ф.М. - Игрок (2008) MP3

79 | 10

461.61 МБ

В этой теме нет новых непрочитанных сообщений. Достоевский Ф.М. - Преступление и наказание (2006) MP3

147 | 15

1.34 ГБ




Вы не можете начинать темы
Вы не можете отвечать на сообщения
Вы не можете редактировать свои сообщения
Вы не можете удалять свои сообщения
Вы не можете добавлять вложения

Перейти:  
Для Мосгорсуда, Роскомнадзора и рекламодателей: mosgorsud-torrent[собачка]yandex.ru
 Вход
ppkBB3cker v.2 © 2008-2014 @ PPK
[ Time : 0.052s | 14 Queries | GZIP : Off ]

Торрент трекер RUTOR.IN, Не можете зайти на rutor.org? Какой новый адрес рутор? Какое зеркало рутор? Не работает rutor.org и зеркала? Тогда наш торрент специально для вас. Rutor.in неофициальное зеркало rutor. В случае если у Вас заблокирован rutor или вдруг Вы не можете на него зайти, то Вы без труда сможете скачать бесплатно и без рекламы последние новинки кино, игр, сериалов и прочего у нас, на Rutor.in. Не нужно использовать прокси, чтобы зайти на рутор, достаточно воспользоваться нашим ресурсом. Все новые фильмы, игры, сериалы, книги и музыка за 2013 и 2014 годы через торрент бесплатно. Скачивайте фильмы в хорошем качестве, игры для пк, xbox, playstation без регистрации. У нас вы найдете новые Зарубежные сериалы и Русские сериалы 2013, 2014, 2015 годов. Оставайтесь с нами, качайте любимые фильмы, игры, сериалы, книги и музыку.