img image001 image001 image001 image001 image001 image001 image001 image001 image001 image001 image001 image001 image001 image001 image001 image001

Planets Sun Sun Sun
Статистика раздачи
Автор: Снежана | Размер: 7.78 ГБ | Добавлен: 25 июл 2013
Раздают: 54    Качают: 3
Скачать торрент
Скачать торрент
Описание торрента

СообщениеДобавлено: 25 июл 2013 

#77
Страна: Россия
Год выпуска: 2010
Производство: Нон-стоп Продакшн, Телеканал Россия

Жанр: драма, биография
Продолжительность: 435 мин.
Субтитры: нет

Режиссер: Владимир Хотиненко

В ролях: Евгений Миронов, Чулпан Хаматова, Ольга Смирнова, Алла Юганова, Александр Домогаров, Дмитрий Певцов, Дарья Мороз, Юрий Степанов, Сергей Тарамаев, Леонид Окунёв...

Описание: Мини-сериал охватывает довольно большой период жизни Федора Михайловича — с момента разгрома кружка петрашевцев (декабрь 1849 г.) до написания «Братьев Карамазовых» (1879 г.). За это время в жизни Достоевского произошло множество драматических событий — ссылка в Сибирь, заграничный роман с Аполлинарией Сусловой, смерть от чахотки первой жены Марии Исаевой, сотрудничество с несколькими почвенническими журналами, встреча с Анной Сниткиной, смерть сына Алеши…





Файл:
Видео
Идентификатор : 224 (0xE0)
Формат : MPEG Video
Версия формата : Version 2
Профиль формата : Main@Main
Параметр BVOP формата : Да
Параметр матрицы формата : По умолчанию
Продолжительность : 1 м. 47 с.
Вид битрейта : Переменный
Битрейт : 78,1 Мбит/сек
Ширина : 720 пикс.
Высота : 576 пикс.
Соотношение сторон : 2,35:1
Частота кадров : 25,000 кадр/сек
Стандарт вещания : PAL
Цветовое пространство : YUV
Подвыборка цветности : 4:2:0
Битовая глубина : 8 бит
Метод сжатия : С потерями
Бит/(Пиксели*Кадры) : 7.534
Размер потока : 1001 Мбайт (98%)
Библиотека кодирования : (c) 1998-2010 Womble Multimedia, Inc. / MPEG Video Wizard DVD 5.0.0.114 (01/2010) / Aug 21 2010

Аудио
Идентификатор : 189 (0xBD)-128 (0x80)
Формат : AC-3
Формат/Информация : Audio Coding 3
Расширение режима : CM (complete main)
Режим смешивания : DVD-Video
Продолжительность : 1 м. 47 с.
Вид битрейта : Постоянный
Битрейт : 192 Кбит/сек
Каналы : 2 канала
Расположение каналов : Front: L R
Частота : 48,0 КГц
Битовая глубина : 16 бит
Метод сжатия : С потерями
Размер потока : 2,45 Мбайт (0%)

Тип релиза: 2xDVD5 (custom), исходник DVD9 R5
Контейнер: DVD Video
Видео: PAL 16:9 (720x576) ~2358 kbps, VBR, Auto Letterboxed
Аудио: 48 kHz, AC3, 2 ch, 192.00 kbps Constant
Меню: статичное
Доп. материалы: нет
Сэмпл
Разделил исходник на два диска, убрал предупреждающие надписи и рекламу. Подправил команды диска и меню, использовались только программа DVDRemake. Автор рипа avproh


Обложка диска и блина


Раздача от группы:



   Похожие торренты   Торрент   Размер 
В этой теме нет новых непрочитанных сообщений. Достоевский [01-08 из 08] (2010) DVDRip-AVC

58 | 24

6.1 ГБ

В этой теме нет новых непрочитанных сообщений. Фикситека [01-21 из 132] (2010-2014) 2xDVD5 от New-Team | Лицензия

83 | 15

6.63 ГБ

В этой теме нет новых непрочитанных сообщений. Бросок кобры: G.I. Joe: Дезертиры / G.I. Joe: Renegades [S01] (2010-2011) 4xDVD9 + 2xDVD5 от New-Team | D | Лицензия

4 | 7

29.5 ГБ

В этой теме нет новых непрочитанных сообщений. Приключения Чака и его друзей / The Adventures of Chuck & Friends [S01x01-52 из 52] (2010-2011) 2xDVD5 + 4xDVD9 от New-Team

7 | 9

28.18 ГБ

В этой теме нет новых непрочитанных сообщений. Книга Илая / The Book of Eli (2010) Blu-ray 1080p | Custom | D, P, A

47 | 23

46.2 ГБ

В этой теме нет новых непрочитанных сообщений. Малер на кушетке / Mahler auf der Couch (2010) DVD9 | P | Custom

1 | 0

6.15 ГБ

В этой теме нет новых непрочитанных сообщений. Происшествие - Достоевский (2015) FLAC

1 | 0

398.86 МБ




Вы не можете начинать темы
Вы не можете отвечать на сообщения
Вы не можете редактировать свои сообщения
Вы не можете удалять свои сообщения
Вы не можете добавлять вложения

Перейти:  
 Вход
ppkBB3cker v.2 © 2008-2014 @ PPK
[ Time : 0.023s | 17 Queries | GZIP : Off ]

cron