img image001 image001 image001 image001 image001 image001 image001 image001 image001 image001 image001 image001 image001 image001 image001

Planets Sun Sun Sun
Статистика раздачи
Автор: Снежана | Размер: 8.7 ГБ | Добавлен: 25 июл 2013
Раздают: 3    Качают: 2
Скачать торрент
Скачать торрент
Описание торрента

СообщениеДобавлено: 25 июл 2013 

#77

Год выпуска: 2004
Жанр: Драма, Боевик, Криминальный триллер, психологический
Продолжительность: 8х48 мин.
Режиссер: Вадим Шмелев
В ролях: Павел Майков, Екатерина Семенова, Сергей Жигунов, Олег Штефанко, Андрей Градов, Сергей Пенкин, Лев Прыгунов, Борис Невзоров
Описание: Краткое содержание сериала «Игра на выбывание»
Этот элитный дом в престижном районе города потом ещё долго будут называть «домом обречённых». Двадцать этажей, двести квартир, несколько сотен жильцов.
А началось всё поздним летним вечером, когда у стен дома появилась подозрительная фигура. Одетый во всё черное, мужчина легко поднялся по едва заметным выступам кирпичной кладки и балконам, на пятый этаж в квартиру молодой женщины, и когда женщина ушла в ванную комнату, подложил в её стол небольшую коробочку с тикающим механизмом. Затем так же незаметно спустился вниз.
Но незнакомец в черном – не злодей. А главный положительный герой нашей истории, Дмитрий, «крепкий орешек»… Он – Клоун. И это не прозвище, а его профессия. Хотя сразу после циркового училища он два года «оттрубил в спецназе».
Женщину, в квартире которой успел побывать Клоун, зовут Ольга. Это его невеста. А загадочная коробка, спрятанная в столе – подарок ко дню рождения – механические часы. Именно таким оригинальным способом Клоун Митя решает поздравить свою любимую...
А на следующее утро уже начинается настоящий детектив.
Утром все жильцы дома Ольги получают странные послания, кажущиеся сначала дурной шуткой. Некий Игрок сообщает, что хочет получить от жильцов дома сумму в миллион долларов. Причем, не позднее, чем через три дня. Если в указанный срок сумма ему передана не будет («всего-то по 5 тысяч долларов с квартиры – смешные для вас деньги, господа!»), то Игрок начнёт убивать по одному жильцу каждый день. И за каждое убийство сумма выкупа будет увеличиваться ещё на 100 тысяч («текущие расходы за ваш счёт, леди и джентльмены!»). Игрок заявляет, что очередная жертва будет выбираться случайным образом, и предупреждает, что готовился к этой операции почти год, и за это время успел собрать информацию обо всех жильцах, поэтому прятаться и уезжать бесполезно, с уехавшими у него «будет даже меньше проблем»...

Файл:

Диск 1
Общее
Полное имя : G: ...Игра на выбываниеДиск 1VIDEO_TSVTS_03_1.VOB
Формат : MPEG-PS
Размер файла : 1024 Мбайт
Продолжительность : 45 м.
Общий поток : 3144 Кбит/сек

Видео
Идентификатор : 224 (0xE0)
Формат : MPEG Video
Версия формата : Version 2
Профиль формата : Main@Main
Параметр BVOP формата : Да
Параметр матрицы формата : По умолчанию
Параметры GOP формата : M=3, N=12
Продолжительность : 45 м.
Вид битрейта : Переменный
Битрейт : 2889 Кбит/сек
Номинальный битрейт : 8500 Кбит/сек
Ширина : 720 пикс.
Высота : 576 пикс.
Соотношение сторон : 4:3
Частота кадров : 25,000 кадр/сек
Стандарт вещания : PAL
Цветовое пространство : YUV
Подвыборка цветности : 4:2:0
Битовая глубина : 8 бит
Тип развёртки : Чересстрочная
Порядок развёртки : Верхнее поле первое
Метод сжатия : С потерями
Бит/(Пиксели*Кадры) : 0.279
Размер потока : 941 Мбайт (92%)

Аудио
Идентификатор : 189 (0xBD)-128 (0x80)
Формат : AC-3
Формат/Информация : Audio Coding 3
Расширение режима : CM (complete main)
Режим смешивания : DVD-Video
Продолжительность : 45 м.
Вид битрейта : Постоянный
Битрейт : 192 Кбит/сек
Каналы : 2 канала
Расположение каналов : Front: L R
Частота : 48,0 КГц
Битовая глубина : 16 бит
Метод сжатия : С потерями
Задержка видео : -80 мс.
Размер потока : 62,5 Мбайт (6%)

Сэмпл 1 диска multiup, ifolder
Качество: DVD5
Формат: DVD Video
Видео кодек: MPEG2
Аудио кодек: DVD-Audio
Видео: 720 x 576 (5:4), 25,000 Гц
Аудио: Русский Dolby Surround 2.0, 48000 Гц, 6 каналов, 192 Кбит/сек
Диск 2
Общее
Полное имя : G: ...Игра на выбываниеДиск 2VIDEO_TSVTS_03_1.VOB
Формат : MPEG-PS
Размер файла : 1024 Мбайт
Продолжительность : 44 м.
Общий поток : 3206 Кбит/сек

Видео
Идентификатор : 224 (0xE0)
Формат : MPEG Video
Версия формата : Version 2
Профиль формата : Main@Main
Параметр BVOP формата : Да
Параметр матрицы формата : По умолчанию
Параметры GOP формата : M=3, N=12
Продолжительность : 44 м.
Вид битрейта : Переменный
Битрейт : 2950 Кбит/сек
Номинальный битрейт : 8500 Кбит/сек
Ширина : 720 пикс.
Высота : 576 пикс.
Соотношение сторон : 4:3
Частота кадров : 25,000 кадр/сек
Стандарт вещания : PAL
Цветовое пространство : YUV
Подвыборка цветности : 4:2:0
Битовая глубина : 8 бит
Тип развёртки : Чересстрочная
Порядок развёртки : Верхнее поле первое
Метод сжатия : С потерями
Бит/(Пиксели*Кадры) : 0.285
Размер потока : 942 Мбайт (92%)

Аудио
Идентификатор : 189 (0xBD)-128 (0x80)
Формат : AC-3
Формат/Информация : Audio Coding 3
Расширение режима : CM (complete main)
Режим смешивания : DVD-Video
Продолжительность : 44 м.
Вид битрейта : Постоянный
Битрейт : 192 Кбит/сек
Каналы : 2 канала
Расположение каналов : Front: L R
Частота : 48,0 КГц
Битовая глубина : 16 бит
Метод сжатия : С потерями
Задержка видео : -80 мс.
Размер потока : 61,3 Мбайт (6%)

Сэмпл 2 диска multiup, ifolder
Качество: DVD5
Формат: DVD Video
Видео кодек: MPEG2
Аудио кодек: DVD-Audio
Видео: 720 x 576 (4:3), 25,000 Гц
Аудио: Русский Dolby Surround 2.0, 48000 Гц, 6 каналов, 192 Кбит/сек



   Похожие торренты   Торрент   Размер 
В этой теме нет новых непрочитанных сообщений. Игра на выбывание [01-08 из 08] (2004) DVDRip-AVC от New-Team

212 | 65

4.36 ГБ

В этой теме нет новых непрочитанных сообщений. Игра на выбывание [01-08 из 08] (2004) DVDRip от New-Team

123 | 52

2.91 ГБ

В этой теме нет новых непрочитанных сообщений. Игра на выбывание [01-08 из 08] (2004) 2 x DVD9 от New-Team | Лицензия

4 | 7

14 ГБ

В этой теме нет новых непрочитанных сообщений. Арабская весна: игра на выбывание (2012) SATRip

2 | 4

808.65 МБ

В этой теме нет новых непрочитанных сообщений. День и ночь / Dag och natt (2004) DVD5 (Custom)

4 | 4

4.31 ГБ

В этой теме нет новых непрочитанных сообщений. Пила. Игра на выживание / Saw (2004) DVD5

0 | 2

4.26 ГБ

В этой теме нет новых непрочитанных сообщений. Тор / Thor (2011) DVD5 | custom

7 | 4

4.34 ГБ




Вы не можете начинать темы
Вы не можете отвечать на сообщения
Вы не можете редактировать свои сообщения
Вы не можете удалять свои сообщения
Вы не можете добавлять вложения

Перейти:  
Для Мосгорсуда, Роскомнадзора и рекламодателей: mosgorsud-torrent[собачка]yandex.ru
 Вход
ppkBB3cker v.2 © 2008-2014 @ PPK
[ Time : 0.061s | 15 Queries | GZIP : Off ]

cron