img image001 image001 image001 image001 image001 image001 image001 image001 image001 image001 image001 image001 image001 image001 image001

Planets Sun Sun Sun
Статистика раздачи
Автор: Снежана | Размер: 2.74 ГБ | Добавлен: 25 июл 2013
Раздают: 25    Качают: 9
Скачать торрент
Скачать торрент
Описание торрента

СообщениеДобавлено: 25 июл 2013 

#77

Информация о сериале
Оригинальное название: Не покидай меня, любовь
Год выпуска: 2001
Жанр: Мелодрама
Режиссер: Борис Токарев, Людмила Гладунко
В ролях: Борис Токарев, Лариса Гузеева, Дмитрий Брусникин, Елена Санаева, Евгения Симонова, Алла Покровская, Валерий Баринов, Людмила Великая, Людмила Гладунко, Андрей Егоров, Ксения Зайцева, Дарья Калмыкова, Екатерина Климова, Алексей Колубков, Елена Королева, Дмитрий Медведев, Василий Мищенко, Дмитрий Муляр, Ирина Печерникова, Сергей Пожарский, Раиса Рязанова, Степан Старчиков, Марина Черепухина, Евгений Синельников

О фильме: В 70-е годы популярная киноактриса Лиза Азимова уехала в США вслед за своим возлюбленным - известным поэтом-диссидентом Громовым, оставив в Москве семью и перечеркнув блистательную карьеру. Прошло несколько лет. Громов умер от пьянства, не сумев приспособиться к американской жизни, Лиза решила вернуться на родину. Судьба сводит ее с бывшим одноклассником, Олегом - генеральным директором крупной московской строительной компании. Олег любил Лизу еще со школы, но, не добившись взаимности, женился на Тане.Их дети уже выросли: Иван заканчивает институт, а Лена - школу. Нежный и заботливый по отношению к жене, Олег тем не менее признается Лизе, что его сердце принадлежит только ей. Не разобравшись в своих чувствах, но стремясь наконец обрести пристань Лиза выходит за него замуж…


Релиз от:

General
Complete name : H:FilmМОИNe.pokidaj.menya.lyubov.4.serii.iz.4.2001.XviD.DVDRip.Files-XNe.pokidaj.menya.lyubov.3.serija.iz.4.2001.XviD.DVDRip.Files-X.avi
Format : AVI
Format/Info : Audio Video Interleave
File size : 702 MiB
Duration : 51mn 34s
Overall bit rate : 1 903 Kbps
Writing application : VirtualDubMod 1.5.10.2 (build 2540/release)
Writing library : VirtualDubMod build 2540/release

Video
ID : 0
Format : MPEG-4 Visual
Format profile : Advanced Simple@L5
Format settings, BVOP : Yes
Format settings, QPel : No
Format settings, GMC : No warppoints
Format settings, Matrix : Default (MPEG)
Codec ID : XVID
Codec ID/Hint : XviD
Duration : 51mn 34s
Bit rate : 1 509 Kbps
Width : 720 pixels
Height : 528 pixels
Display aspect ratio : 4:3
Frame rate : 25.000 fps
Color space : YUV
Chroma subsampling : 4:2:0
Bit depth : 8 bits
Scan type : Progressive
Bits/(Pixel*Frame) : 0.159
Stream size : 557 MiB (79%)
Writing library : XviD 1.2.1 (UTC 2008-12-04)

Audio
ID : 1
Format : AC-3
Format/Info : Audio Coding 3
Mode extension : CM (complete main)
Codec ID : 2000
Duration : 51mn 34s
Bit rate mode : Constant
Bit rate : 384 Kbps
Channel(s) : 6 channels
Channel positions : Front: L C R, Side: L R, LFE
Sampling rate : 48.0 KHz
Bit depth : 16 bits
Video delay : 16ms
Stream size : 142 MiB (20%)
Alignment : Split accross interleaves
Interleave, duration : 40 ms (1.00 video frame)
Interleave, preload duration : 500 ms


Выпущено: Россия, Киностудия ЭМТО ДЕБЮТ, МОСФИЛЬМ
Продолжительность: 4 x ~ 00:51:50
Перевод: Не требуется

Файл
Формат:AVI
Качество: DVDRip
Видео: XviD, ~ 1509 Кбит/с, 720x528, 25.000 fps
Аудио: AC3, 48 kHz, 6 ch, 384 Кбит/с




   Похожие торренты   Торрент   Размер 
В этой теме нет новых непрочитанных сообщений. Не покидай меня, Любовь (2013) HDTVRip от Files-x

670 | 305

1.37 ГБ

В этой теме нет новых непрочитанных сообщений. Не покидай меня, Любовь (2013) HDTV 1080i от Files-x

40 | 1

5.25 ГБ

В этой теме нет новых непрочитанных сообщений. Не покидай меня, Любовь (2013) HDTVRip от MediaClub

698 | 313

1.39 ГБ

В этой теме нет новых непрочитанных сообщений. Не покидай меня, Любовь (2013) HDTV 1080p от MediaClub

116 | 52

4.28 ГБ

В этой теме нет новых непрочитанных сообщений. Не покидай меня, Любовь (2013) HDTVRip 720p от MediaClub

99 | 50

2.43 ГБ

В этой теме нет новых непрочитанных сообщений. Юная любовь (Детская любовь) / Young Love ( (2001) DVDRip | L1

80 | 17

1.2 ГБ

В этой теме нет новых непрочитанных сообщений. Отцовская любовь / Ehsaas. The feeling (2001) SATRip от Files-x | P

0 | 3

1.66 ГБ




Вы не можете начинать темы
Вы не можете отвечать на сообщения
Вы не можете редактировать свои сообщения
Вы не можете удалять свои сообщения
Вы не можете добавлять вложения

Перейти:  
Для Мосгорсуда, Роскомнадзора и рекламодателей: mosgorsud-torrent[собачка]yandex.ru
 Вход
ppkBB3cker v.2 © 2008-2014 @ PPK
[ Time : 0.027s | 15 Queries | GZIP : Off ]

Торрент трекер RUTOR.IN, Не можете зайти на rutor.org? Какой новый адрес рутор? Какое зеркало рутор? Не работает rutor.org и зеркала? Тогда наш торрент специально для вас. Rutor.in неофициальное зеркало rutor. В случае если у Вас заблокирован rutor или вдруг Вы не можете на него зайти, то Вы без труда сможете скачать бесплатно и без рекламы последние новинки кино, игр, сериалов и прочего у нас, на Rutor.in. Не нужно использовать прокси, чтобы зайти на рутор, достаточно воспользоваться нашим ресурсом. Все новые фильмы, игры, сериалы, книги и музыка за 2013 и 2014 годы через торрент бесплатно. Скачивайте фильмы в хорошем качестве, игры для пк, xbox, playstation без регистрации. У нас вы найдете новые Зарубежные сериалы и Русские сериалы 2013, 2014, 2015 годов. Оставайтесь с нами, качайте любимые фильмы, игры, сериалы, книги и музыку.
cron