img image001 image001 image001 image001 image001 image001 image001 image001 image001 image001 image001 image001 image001 image001 image001

Planets Sun Sun Sun
Статистика раздачи
Автор: Снежана | Размер: 7.77 ГБ | Добавлен: 25 июл 2013
Раздают: 41    Качают: 7
Скачать торрент
Скачать торрент
Описание торрента

СообщениеДобавлено: 25 июл 2013 

#77

Год выпуска: 2011
Производство: Продюсерский Центр «Фаворит-Фильм»
Жанр: Военный фильм, драма
Продолжительность: 197 минут
Субтитры: нет
Режиссёр: Влад Фурман
В ролях: Сергей Маховиков, Ольга Фадеева, Анна Арланова, Дарья Баранова, Юлия Полубинская, Ирина Рахманова, Анатолий Петров, Михаил Долгополов, Максим Селяво, Владислав Буланов, Ричард Бондарев, Виталий Котовицкий, Владимир Стеклов, Сергей Прокопич, Сергей Власов, Виктор Молчан, Кирилл Новицкий, Вячеслав Павлють

Описание:

Действие сериала происходит в 1941 году. Только что Комитет Обороны принял постановление о водочном довольствии для действующей армии. Старшине Филиппову было дано задание: доставить в стрелковую дивизию те самые знаменитые «100 наркомовских грамм». В помощники ему отправляют 4 девушки, местного старика-проводника Архипа, его внука-подростка Митю и красноармейца. Погрузив на телеги тару, обоз отправляется в путь. За несколько дней этой рутинной тыловой поездки им предстоит пройти серьезные военные испытания: неоднократно вступить бой, стать свидетелями настоящей отваги и подлой трусости, познать любовь и ревность.



Сэмпл

Качество: 2 x DVD5 (custom), исходник: DVD9
Формат: DVD-Video
Видео кодек: MPEG2
Аудио кодек: AC3
Видео: PAL 16:9 (720x576@1024x576), 25,00fps, ~5021 kbps, VBR, Auto Pan&Scan, Auto Letterboxed
Аудио: Russian 48000Hz, AC-3 (2 ch) Front: L R, 192 kbps
Меню: частично анимированное

Убрал предупреждения и рекламу. Меню выбора серий пришлось обездвижить. Разделил на 2 диска по 2 серии. Команды диска не трогал, меню выбора серий размножил на 2 диска, ненужные кнопки закрыл. Использовал программы: Фотошоп, MuxMan и DVDRemake. Автор рипа avproh


Общее
Полное имя : Narkomovskij.oboz.(4.serii.iz.4).2011.2xDVD5DVD1VIDEO_TSVTS_02_1.VOB
Формат : MPEG-PS
Размер файла : 1024 Мбайт
Продолжительность : 26 м.
Общий поток : 5318 Кбит/сек
Видео
Идентификатор : 224 (0xE0)
Формат : MPEG Video
Версия формата : Version 2
Профиль формата : Main@Main
Параметр BVOP формата : Да
Параметр матрицы формата : Выборочная
Продолжительность : 26 м.
Вид битрейта : Переменный
Битрейт : 5021 Кбит/сек
Максимальный битрейт : 8000 Кбит/сек
Ширина : 720 пикс.
Высота : 576 пикс.
Соотношение сторон : 16:9
Частота кадров : 25,000 кадр/сек
Стандарт вещания : PAL
Цветовое пространство : YUV
Подвыборка цветности : 4:2:0
Битовая глубина : 8 бит
Тип развёртки : Чересстрочная
Порядок развёртки : Верхнее поле первое
Метод сжатия : С потерями
Бит/(Пиксели*Кадры) : 0.484
Размер потока : 966 Мбайт (94%)
Аудио
Идентификатор : 189 (0xBD)-128 (0x80)
Формат : AC-3
Формат/Информация : Audio Coding 3
Расширение режима : CM (complete main)
Режим смешивания : DVD-Video
Продолжительность : 26 м.
Вид битрейта : Постоянный
Битрейт : 192 Кбит/сек
Каналы : 2 канала
Расположение каналов : Front: L R
Частота : 48,0 КГц
Битовая глубина : 16 бит
Метод сжатия : С потерями
Размер потока : 37,0 Мбайт (4%)
Меню







   Похожие торренты   Торрент   Размер 
В этой теме нет новых непрочитанных сообщений. Наркомовский обоз [01-04 из 04] (2011) DVD9

11 | 4

7.78 ГБ

В этой теме нет новых непрочитанных сообщений. Наркомовский обоз [01-04 из 04] (2011) DVDRip-AVC

90 | 29

2.94 ГБ

В этой теме нет новых непрочитанных сообщений. Наркомовский обоз [01-04 из 04] (2011) DVDRip от -=HD-NET=-

180 | 60

2.36 ГБ

В этой теме нет новых непрочитанных сообщений. Наркомовский обоз [01-04 из 04] (2011) DVDRip-AVC от Youtracker

102 | 10

2.14 ГБ

В этой теме нет новых непрочитанных сообщений. Наркомовский обоз [01-02 из 04] (2011) HDTVRip 720p

32 | 27

3.94 ГБ

В этой теме нет новых непрочитанных сообщений. Наркомовский обоз [01-04 из 04] (2011) DVDRip от КинозалSAT

838 | 92

2.35 ГБ

В этой теме нет новых непрочитанных сообщений. Наркомовский обоз [01-04 из 04] (2011) DVDRip от MediaClub | КПК

44 | 14

1.22 ГБ




Вы не можете начинать темы
Вы не можете отвечать на сообщения
Вы не можете редактировать свои сообщения
Вы не можете удалять свои сообщения
Вы не можете добавлять вложения

Перейти:  
Для Мосгорсуда, Роскомнадзора и рекламодателей: mosgorsud-torrent[собачка]yandex.ru
 Вход
ppkBB3cker v.2 © 2008-2014 @ PPK
[ Time : 7.289s | 14 Queries | GZIP : Off ]

Торрент трекер RUTOR.IN, Не можете зайти на rutor.org? Какой новый адрес рутор? Какое зеркало рутор? Не работает rutor.org и зеркала? Тогда наш торрент специально для вас. Rutor.in неофициальное зеркало rutor. В случае если у Вас заблокирован rutor или вдруг Вы не можете на него зайти, то Вы без труда сможете скачать бесплатно и без рекламы последние новинки кино, игр, сериалов и прочего у нас, на Rutor.in. Не нужно использовать прокси, чтобы зайти на рутор, достаточно воспользоваться нашим ресурсом. Все новые фильмы, игры, сериалы, книги и музыка за 2013 и 2014 годы через торрент бесплатно. Скачивайте фильмы в хорошем качестве, игры для пк, xbox, playstation без регистрации. У нас вы найдете новые Зарубежные сериалы и Русские сериалы 2013, 2014, 2015 годов. Оставайтесь с нами, качайте любимые фильмы, игры, сериалы, книги и музыку.