img image001 image001 image001 image001 image001 image001 image001 image001 image001 image001 image001 image001 image001 image001 image001

Planets Sun Sun Sun
Статистика раздачи
Автор: Снежана | Размер: 627.33 МБ | Добавлен: 25 июл 2013
Раздают: 2    Качают: 5
Скачать торрент
Скачать торрент
Описание торрента

СообщениеДобавлено: 25 июл 2013 

#77

Долина Смерти / Death Valley

Страна: США
Жанр: комедия, ужасы, документальное
Год выпуска: 2011
Продолжительность: 12 серий по ~22 мин

Перевод: Любительский (одноголосый)

Режиссер: Остин Ридинг

В ролях: Таня Рэймонд, Тоби Меули, Вене Л. Аркораки, Брайан Коллен, Тексас Бэттл, Чарли Сандерс, Брюс Джонсон, Канту Р.Дж., Кортни Хэлверсон

Описание:
Хоррор-комедия, которая расскажет о людских подвигах спецотдела по борьбе с нежитью – элитного подразделения департамента полиции Лос-Анджелеса, которое было сформировано в 2009 году, когда долину Сан-Фернандо заполонили зомби, вампиры и оборотни. Сериал снят в псевдо-документальном стиле.

Релиз группы:

Доп. информация:

Внимание! Сериал содержит ненормативную лексику.

Перевод: AlexSoft 91

Озвучивание Ворон работа над дорожкой Ворон

Качество видео: 720р HDTVRip - Сэмпл
Формат видео: MKV
Видео: 1 280x720 (16:9), 23.976 fps, V_MPEG4/ISO/AVC, 3775Kbps avg, 0.171 bit/pixel
Аудио: 48 kHz, AC3 Dolby Digital, 2/0 (L,R) ch, ~192 kbps (Русский)




Формат : Matroska
Версия формата : Version 2
Размер файла : 627 Мбайт
Продолжительность : 21 м.
Общий поток : 4048 Кбит/сек
Дата кодирования : UTC 2011-09-06 11:02:36
Программа кодирования : mkvmerge v4.9.1 ('Ich will') сборка от Jul 11 2011 23:53:15
Библиотека кодирования : libebml v1.2.1 + libmatroska v1.1.1

Видео
Идентификатор : 1
Формат : AVC
Формат/Информация : Advanced Video Codec
Профиль формата : High@L4.1
Параметр CABAC формата : Да
Параметр ReFrames формата : 5 кадров
Идентификатор кодека : V_MPEG4/ISO/AVC
Продолжительность : 21 м.
Битрейт : 3775 Кбит/сек
Ширина : 1280 пикселей
Высота : 720 пикселей
Соотношение сторон : 16:9
Частота кадров : 23,976 кадра/сек
Цветовое пространство : YUV
Субдискретизация насыщенности : 4:2:0
Битовая глубина : 8 бит
Тип развёртки : Прогрессивная
Бит/(Пиксели*Кадры) : 0.171
Размер потока : 585 Мбайт (93%)
Библиотека кодирования : x264 core 116 r2074 2641b9e
Настройки программы : cabac=1 / ref=5 / deblock=1:0:0 / analyse=0x3:0x113 / me=umh / subme=8 / psy=1 / psy_rd=1.00:0.00 / mixed_ref=1 / me_range=16 / chroma_me=1 / trellis=1 / 8x8dct=1 / cqm=0 / deadzone=21,11 / fast_pskip=1 / chroma_qp_offset=-2 / threads=12 / sliced_threads=0 / nr=0 / decimate=1 / interlaced=0 / bluray_compat=0 / constrained_intra=0 / bframes=3 / b_pyramid=2 / b_adapt=2 / b_bias=0 / direct=3 / weightb=1 / open_gop=0 / weightp=2 / keyint=250 / keyint_min=23 / scenecut=40 / intra_refresh=0 / rc_lookahead=50 / rc=crf / mbtree=1 / crf=18.0 / qcomp=0.60 / qpmin=0 / qpmax=69 / qpstep=4 / ip_ratio=1.40 / aq=1:1.00
Язык : English

Аудио
Идентификатор : 2
Формат : AC-3
Формат/Информация : Audio Coding 3
Расширение режима : CM (complete main)
Идентификатор кодека : A_AC3
Продолжительность : 21 м.
Вид битрейта : Постоянный
Битрейт : 192 Кбит/сек
Каналы : 2 канала
Расположение каналов : Front: L R
Частота : 48,0 КГц
Битовая глубина : 16 бит
Метод сжатия : С потерями
Размер потока : 29,8 Мбайт (5%)



   Похожие торренты   Торрент   Размер 
В этой теме нет новых непрочитанных сообщений. Долина Смерти / Death Valley [07 из 12] (2011) HDTV 720p от BTT-TEAM

0 | 2

431.94 МБ

В этой теме нет новых непрочитанных сообщений. Долина Смерти / Death Valley [10 из 12] (2011) HDTV 720p от BTT-TEAM

0 | 1

548.35 МБ

В этой теме нет новых непрочитанных сообщений. Долина Смерти / Death Valley [02 из 12] (2011) HDTV 720p от BTT-TEAM

0 | 2

708.5 МБ

В этой теме нет новых непрочитанных сообщений. Долина Смерти / Death Valley [11 из 12] (2011) HDTV 720p от BTT-TEAM

0 | 1

515.04 МБ

В этой теме нет новых непрочитанных сообщений. Долина Смерти / Death Valley [09 из 12] (2011) HDTV 720p от BTT-TEAM

0 | 1

575.46 МБ

В этой теме нет новых непрочитанных сообщений. Долина Смерти / Death Valley [12 из 12] (2011) HDTV 720p от BTT-TEAM

1 | 1

486.91 МБ

В этой теме нет новых непрочитанных сообщений. Долина Смерти / Death Valley [08 из 12] (2011) HDTV 720p от BTT-TEAM

0 | 1

449.46 МБ




Вы не можете начинать темы
Вы не можете отвечать на сообщения
Вы не можете редактировать свои сообщения
Вы не можете удалять свои сообщения
Вы не можете добавлять вложения

Перейти:  
Для Мосгорсуда, Роскомнадзора и рекламодателей: mosgorsud-torrent[собачка]yandex.ru
 Вход
ppkBB3cker v.2 © 2008-2014 @ PPK
[ Time : 0.047s | 16 Queries | GZIP : Off ]

Торрент трекер RUTOR.IN, Не можете зайти на rutor.org? Какой новый адрес рутор? Какое зеркало рутор? Не работает rutor.org и зеркала? Тогда наш торрент специально для вас. Rutor.in неофициальное зеркало rutor. В случае если у Вас заблокирован rutor или вдруг Вы не можете на него зайти, то Вы без труда сможете скачать бесплатно и без рекламы последние новинки кино, игр, сериалов и прочего у нас, на Rutor.in. Не нужно использовать прокси, чтобы зайти на рутор, достаточно воспользоваться нашим ресурсом. Все новые фильмы, игры, сериалы, книги и музыка за 2013 и 2014 годы через торрент бесплатно. Скачивайте фильмы в хорошем качестве, игры для пк, xbox, playstation без регистрации. У нас вы найдете новые Зарубежные сериалы и Русские сериалы 2013, 2014, 2015 годов. Оставайтесь с нами, качайте любимые фильмы, игры, сериалы, книги и музыку.
cron