img image001 image001 image001 image001 image001 image001 image001 image001 image001 image001 image001 image001 image001 image001 image001

Planets Sun Sun Sun
Статистика раздачи
Автор: Снежана | Размер: 4.57 ГБ | Добавлен: 25 июл 2013
Раздают: 68    Качают: 10
Скачать торрент
Скачать торрент
Описание торрента

СообщениеДобавлено: 25 июл 2013 

#77


Название: Батальоны просят огня
Год выпуска: 1985
Жанр: Военный, драма
Режиссер: Александр Боголюбов, Владимир Чеботарев
В ролях: Александр Збруев, Вадим Спиридонов, Олег Ефремов, Александр Галибин, Елена Попова, Игорь Скляр, Владимир Кашпур, Николай Караченцов, Геннадий Фролов, Виктор Чеботарёв, Вячеслав Баранов, Михаил Мокеев, Борислав Брондуков, Александр Феклистов, Александр Абрамов (II), Вадим Андреев, Владимир Скляров, Евгений Пашин, Юрий Дубровин, Сергей Иванов, Николай Сектименко, Лариса Бобенко, Людмила Стоянова

О фильме: Телесериал по мотивам одноимённой повести Юрия Бондарева «Батальоны просят огня» основан на реальных событиях Великой Отечественной войны, которые происходили в 1943 году во время форсирования войсками Красной Армии Днепра. Два батальона были отправлены на верную смерть – а точнее - на оккупированный фашистскими захватчиками берег реки, их цель – дезориентировать противника, дабы он не смог помешать дивизии осуществить прорыв на стратегически важный город – Днепров. По плану было так: осуществляющих бросок солдат будут поддерживать основные соединения при помощи артиллерии и авиации. Однако на деле все вышло не так: высшее командование поменяло план наступления и батальоны остались без огневой поддержки, тем самым, обрекая бойцов на верную погибель, тем более что им был отдан приказ держаться до последнего, и ни в коем случае не сдавать позиций, не отступать…



Выпущено: СССР / Мосфильм
Продолжительность: 01:03:17 + 01:10:53 + 01:07:55 + 01:05:40
Язык: Русский


Кодек: XviD
Качество видео: DVDRip
Формат: avi
Видео: 704x528 (1.33:1), 25 fps, XviD build 63 ~2242 kbps avg, 0.24 bit/pixel
Аудио: 48 kHz, AC3 Dolby Digital, 2/0 (L,R) ch, ~192 kbps







Формат : AVI
Формат/Информация : Audio Video Interleave
Размер файла : 1,08 Гбайт
Продолжительность : 1 ч. 3 м.
Общий поток : 2443 Кбит/сек

Видео
Идентификатор : 0
Формат : MPEG-4 Visual
Профиль формата : Advanced Simple@L5
Параметр BVOP формата : 1
Параметр QPel формата : Нет
Параметр GMC формата : Без точки перехода
Параметр матрицы формата : Default
Идентификатор кодека : XVID
Идентификатор кодека/Подсказка : XviD
Продолжительность : 1 ч. 3 м.
Битрейт : 2243 Кбит/сек
Ширина : 704 пикселя
Высота : 528 пикселей
Соотношение сторон : 4:3
Частота кадров : 25,000 кадров/сек
Цветовое пространство : YUV
Субдискретизация насыщенности : 4:2:0
Битовая глубина : 8 бит
Тип развёртки : Прогрессивная
Метод сжатия : С потерями
Бит/(Пиксели*Кадры) : 0.241
Размер потока : 1015 Мбайт (92%)
Библиотека кодирования : XviD 63

Аудио
Идентификатор : 1
Формат : AC-3
Формат/Информация : Audio Coding 3
Расширение режима : CM (complete main)
Идентификатор кодека : 2000
Продолжительность : 1 ч. 3 м.
Вид битрейта : Постоянный
Битрейт : 192 Кбит/сек
Каналы : 2 канала
Расположение каналов : Front: L R
Частота : 48,0 КГц
Битовая глубина : 16 бит
Метод сжатия : С потерями
Размер потока : 86,9 Мбайт (8%)
Выравнивание : Соединение по промежуткам
Продолжительность промежутка : 64 мс. (1,60 видеокадра)
Время предзагрузки промежутка : 512 мс.
------------- _____________________-------------------



   Похожие торренты   Торрент   Размер 
В этой теме нет новых непрочитанных сообщений. Батальоны просят огня (1985) DVDRip

691 | 40

3.52 ГБ

В этой теме нет новых непрочитанных сообщений. Батальоны просят огня [01-04 из 04] (1985) DVDRip-AVC от ExKinoRay

87 | 29

5.87 ГБ

В этой теме нет новых непрочитанных сообщений. Батальоны просят огня [01-04 из 04] (1985) DVDRip-AVC от Тorrent-Хzona

12 | 10

3.64 ГБ

В этой теме нет новых непрочитанных сообщений. Батальоны просят огня [01-04 из 04] (1985) 2хDVD9

5 | 5

15.11 ГБ

В этой теме нет новых непрочитанных сообщений. Батальоны просят огня [01-04 из 04] (1985) HDDVDRip-AVC от ExKinoRay

444 | 45

7.57 ГБ

В этой теме нет новых непрочитанных сообщений. Бондарев Юрий - Батальоны просят огня (2015) MP3

61 | 5

423.37 МБ

В этой теме нет новых непрочитанных сообщений. Репортаж с линии огня (1985) SATRip от New-Team

15 | 3

1.09 ГБ




Вы не можете начинать темы
Вы не можете отвечать на сообщения
Вы не можете редактировать свои сообщения
Вы не можете удалять свои сообщения
Вы не можете добавлять вложения

Перейти:  
Для Мосгорсуда, Роскомнадзора и рекламодателей: mosgorsud-torrent[собачка]yandex.ru
 Вход
ppkBB3cker v.2 © 2008-2014 @ PPK
[ Time : 0.055s | 15 Queries | GZIP : Off ]

Торрент трекер RUTOR.IN, Не можете зайти на rutor.org? Какой новый адрес рутор? Какое зеркало рутор? Не работает rutor.org и зеркала? Тогда наш торрент специально для вас. Rutor.in неофициальное зеркало rutor. В случае если у Вас заблокирован rutor или вдруг Вы не можете на него зайти, то Вы без труда сможете скачать бесплатно и без рекламы последние новинки кино, игр, сериалов и прочего у нас, на Rutor.in. Не нужно использовать прокси, чтобы зайти на рутор, достаточно воспользоваться нашим ресурсом. Все новые фильмы, игры, сериалы, книги и музыка за 2013 и 2014 годы через торрент бесплатно. Скачивайте фильмы в хорошем качестве, игры для пк, xbox, playstation без регистрации. У нас вы найдете новые Зарубежные сериалы и Русские сериалы 2013, 2014, 2015 годов. Оставайтесь с нами, качайте любимые фильмы, игры, сериалы, книги и музыку.