img image001 image001 image001 image001 image001 image001 image001 image001 image001 image001 image001 image001 image001 image001 image001

Planets Sun Sun Sun
Статистика раздачи
Автор: Снежана | Размер: 4.25 ГБ | Добавлен: 25 июл 2013, 05:11
Раздают: 20    Качают: 13
Скачать торрент
Скачать торрент
Описание торрента

СообщениеДобавлено: 25 июл 2013, 05:11 

#77

Информация о фильме
Название: Жены и дочери
Оригинальное название: Wives and Daughters
Год выхода: 1999
Жанр: драма
Режиссер: Николас Рентон / Nicholas Renton
В ролях: Джастин Уоддэлл /Justine Waddell/, Билл Патерсон /Bill Paterson/, Франческа Аннис /Francesca Annis/, Майкл Гэмбон /Michael Gambon/, Пенелопа Вилтон /Penelope Wilton/, Энтони Хауэлл /Anthony Howell/, Барбара Флинн /Barbara Flynn/, Дебора Файндлей /Deborah Findlay/

О фильме:
Когда овдовевший отец 17-летней Молли Гибсон решает жениться вновь, жизнь девушки превращается в хаос. Молли предстоит научиться жить рядом с властной мачехой и необузданной сводной сестрой, разобраться в мрачных семейных тайнах, испытать пылкую страсть и стать жертвой любовных интриг.


Страна: США, Великобритания
Студия: BBC and WGBH Boston
Продолжительность: 01:14:40 + 01:16:11 + 01:14:18 + 01:16:36
Перевод: Профессиональный (двухголосый) / Оригинал

Файл
Кодек: XviD / MP3
Качество: DVDRip
Видео: XviD, 672x384 (16:9), 25.000 fps, 1 750 Kbps (0.271 bit/pixel)
Звук:
Аудио #1: MP3, 48.0 KHz, 2 ch, 135 Kbps, VBR (Russian)
Аудио #2: MP3, 48.0 KHz, 2 ch, 134 Kbps, VBR (English)
Субтитры: Русские (внешние)

Семпл

General
Complete name : E:VideoZheny_i_docheri_aviWives.and.Daughters.(Zheny.i.docheri).1999.BBC.(RUS.ENG).1.of.4.avi
Format : AVI
Format/Info : Audio Video Interleave
File size : 1.06 GiB
Duration : 1h 14mn
Overall bit rate : 2 039 Kbps
Writing application : VirtualDubMod 1.5.4.1 (build 2178/release)
Writing library : VirtualDubMod build 2178/release

Video
ID : 0
Format : MPEG-4 Visual
Format profile : Advanced Simple@L5
Format settings, BVOP : 1
Format settings, QPel : No
Format settings, GMC : No warppoints
Format settings, Matrix : Custom
Codec ID : XVID
Codec ID/Hint : XviD
Duration : 1h 14mn
Bit rate : 1 750 Kbps
Width : 672 pixels
Height : 384 pixels
Display aspect ratio : 16:9
Frame rate : 25.000 fps
Color space : YUV
Chroma subsampling : 4:2:0
Bit depth : 8 bits
Scan type : Progressive
Compression mode : Lossy
Bits/(Pixel*Frame) : 0.271
Stream size : 934 MiB (86%)
Writing library : XviD 1.2.0.dev47 (UTC 2006-11-01)

Audio #1
ID : 1
Format : MPEG Audio
Format version : Version 1
Format profile : Layer 3
Mode : Joint stereo
Mode extension : MS Stereo
Codec ID : 55
Codec ID/Hint : MP3
Duration : 1h 14mn
Bit rate mode : Variable
Bit rate : 135 Kbps
Nominal bit rate : 160 Kbps
Channel(s) : 2 channels
Sampling rate : 48.0 KHz
Compression mode : Lossy
Stream size : 71.9 MiB (7%)
Alignment : Aligned on interleaves
Interleave, duration : 24 ms (0.60 video frame)
Interleave, preload duration : 487 ms
Writing library : LAME3.97
Encoding settings : -m j -V 4 -q 2 -lowpass 17.5 --abr 160
Language : Russian

Audio #2
ID : 2
Format : MPEG Audio
Format version : Version 1
Format profile : Layer 3
Mode : Joint stereo
Mode extension : MS Stereo
Codec ID : 55
Codec ID/Hint : MP3
Duration : 1h 14mn
Bit rate mode : Variable
Bit rate : 134 Kbps
Nominal bit rate : 160 Kbps
Channel(s) : 2 channels
Sampling rate : 48.0 KHz
Compression mode : Lossy
Stream size : 71.5 MiB (7%)
Alignment : Aligned on interleaves
Interleave, duration : 24 ms (0.60 video frame)
Interleave, preload duration : 433 ms
Writing library : LAME3.97
Encoding settings : -m j -V 4 -q 2 -lowpass 17.5 --abr 160
Language : English




   Похожие торренты   Торрент   Размер 
В этой теме нет новых непрочитанных сообщений. Жены и дочери / Wives and Daughters (1999) 2x DVD5 от Generalfilm

45 | 24

8.72 ГБ

В этой теме нет новых непрочитанных сообщений. Жены заключенных / Жены узников / Prisoners Wives [S01] (2012) HDTVRip | BaibaKo

2 | 10

4.7 ГБ

В этой теме нет новых непрочитанных сообщений. Жены заключенных / Жены узников / Prisoners Wives [S02] (2013) WEB-DLRip | BaibaKo

9 | 2

2.73 ГБ

В этой теме нет новых непрочитанных сообщений. Силип / Дочери Евы / Silip / Daughters of Eve (1985) DVDRip от R.G. Mega Best

44 | 46

1.37 ГБ

В этой теме нет новых непрочитанных сообщений. Дочери ботаника / The Chinese Botanist's Daughters / Les filles du botaniste (2006) DVDRip

2 | 3

1.39 ГБ

В этой теме нет новых непрочитанных сообщений. Степфордские жёны / The Stepford Wives (2004) DVDRip

93 | 6

1.46 ГБ

В этой теме нет новых непрочитанных сообщений. Мужья и жены / Husbands and Wives (1992) DVDRip-AVC

151 | 29

1.51 ГБ




Вы не можете начинать темы
Вы не можете отвечать на сообщения
Вы не можете редактировать свои сообщения
Вы не можете удалять свои сообщения
Вы не можете добавлять вложения

Перейти:  
Для Мосгорсуда, Роскомнадзора и рекламодателей: mosgorsud-torrent[собачка]yandex.ru
Настройки
ppkBB3cker v.2 © 2008-2014 @ PPK
[ Time : 0.017s | 16 Queries | GZIP : Off ]
CGP [Extreme] output time : 0.00030s | 0 Queries | GZIP : Off

Торрент трекер RUTOR.IN, Не можете зайти на rutor.org? Какой новый адрес рутор? Какое зеркало рутор? Не работает rutor.org и зеркала? Тогда наш торрент специально для вас. Rutor.in неофициальное зеркало rutor. В случае если у Вас заблокирован rutor или вдруг Вы не можете на него зайти, то Вы без труда сможете скачать бесплатно и без рекламы последние новинки кино, игр, сериалов и прочего у нас, на Rutor.in. Не нужно использовать прокси, чтобы зайти на рутор, достаточно воспользоваться нашим ресурсом. Все новые фильмы, игры, сериалы, книги и музыка за 2013 и 2014 годы через торрент бесплатно. Скачивайте фильмы в хорошем качестве, игры для пк, xbox, playstation без регистрации. У нас вы найдете новые Зарубежные сериалы и Русские сериалы 2013, 2014, 2015 годов. Оставайтесь с нами, качайте любимые фильмы, игры, сериалы, книги и музыку.