img image001 image001 image001 image001 image001 image001 image001 image001 image001 image001 image001 image001 image001 image001 image001

Planets Sun Sun Sun
Статистика раздачи
Автор: Снежана | Размер: 1.61 ГБ | Добавлен: 25 июл 2013
Раздают: 5    Качают: 3
Скачать торрент
Скачать торрент
Описание торрента

СообщениеДобавлено: 25 июл 2013 


Информация о фильме
Название: Горячие финские парни / Финские чудаки
Оригинальное название: The Dudesons
Год выхода: 2006
Жанр: Развлекательное шоу, юмор
В ролях: Юкка Хилден, Ярппи Леппала, Ярно Лаасала, ЭйчПи Парвиайнен

Описание: Четверо веселых финских парней катаются на сноубордах, скейтбордах, горных велосипедах и прочем, на чем можно куда-либо ехать, совершая при этом различные безумные трюки. Получается безумно, смешно и страшно. Не повторяйте этого дома! На улице, впрочем, тоже.


Страна: Финляндия
Продолжительность: серия ~ 22 минута
Перевод: Профессиональный (многоголосый, закадровый) 2x2

Файл
Кодек: XviD
Качество: DVDRip
Видео: 608x336 25.00fps 938kbps
русская дорожка: Dolby AC3 48000Hz stereo 192kbps
оригинал: MPEG Audio Layer 3 48000Hz stereo 164kbps


General
Complete name : S:The Dudesons DVDRip [2x2, eng]Season 1The.Dudesons.s01e01.avi
Format : AVI
Format/Info : Audio Video Interleave
File size : 206 MiB
Duration : 22mn 0s
Overall bit rate : 1 309 Kbps
Writing application : VirtualDubMod 1.5.10.2 (build 2542/release)
Writing library : VirtualDubMod build 2542/release

Video
ID : 0
Format : MPEG-4 Visual
Format profile : Simple@L3
Format settings, BVOP : 2
Format settings, QPel : No
Format settings, GMC : No warppoints
Format settings, Matrix : Default (H.263)
Codec ID : XVID
Codec ID/Hint : XviD
Duration : 22mn 0s
Bit rate : 938 Kbps
Width : 608 pixels
Height : 336 pixels
Display aspect ratio : 16:9
Frame rate : 25.000 fps
Color space : YUV
Chroma subsampling : 4:2:0
Bit depth : 8 bits
Scan type : Progressive
Compression mode : Lossy
Bits/(Pixel*Frame) : 0.184
Stream size : 148 MiB (72%)
Writing library : XviD 1.0.3 (UTC 2004-12-20)

Audio #1
ID : 1
Format : AC-3
Format/Info : Audio Coding 3
Mode extension : CM (complete main)
Codec ID : 2000
Duration : 22mn 0s
Bit rate mode : Constant
Bit rate : 192 Kbps
Channel(s) : 2 channels
Channel positions : Front: L R
Sampling rate : 48.0 KHz
Bit depth : 16 bits
Compression mode : Lossy
Stream size : 30.2 MiB (15%)
Alignment : Split accross interleaves
Interleave, duration : 40 ms (1.00 video frame)
Interleave, preload duration : 500 ms

Audio #2
ID : 2
Format : MPEG Audio
Format version : Version 1
Format profile : Layer 3
Mode : Joint stereo
Mode extension : MS Stereo
Codec ID : 55
Codec ID/Hint : MP3
Duration : 22mn 0s
Bit rate mode : Variable
Bit rate : 164 Kbps
Minimum bit rate : 160 Kbps
Channel(s) : 2 channels
Sampling rate : 48.0 KHz
Compression mode : Lossy
Stream size : 25.9 MiB (13%)
Alignment : Split accross interleaves
Interleave, duration : 40 ms (1.00 video frame)
Interleave, preload duration : 500 ms
Writing library : LAME3.95
Encoding settings : -m j -V 4 -q 3 -lowpass 18 --vbr-old -b 160
Внимание! Раздача ведётся путём добавления новых серий; при каждом добавлении создётся новый торрент. Чтобы начать докачку новой серии, пользователям необходимо сделать следующее: (1) остановить скачивание, (2) удалить старый торрент у себя из клиента (старые серии удалять не надо), (3) скачать новый торрент и запустить его у себя в клиенте вместо старого, при этом указать клиенту путь в старую папку куда и должно происходить скачивание новых серий.
Ваш клиент при этом должен произвести хеширование (проверку) старой папки (если не производит сам - помогите ему сделать это), и будет докачивать только те серии которых у вас ещё нет. Старые серии при этом не удаляются, а продолжают раздаваться!
Eсли вы уже удалили старые серии, то предотвратить повторную закачку старых серий можно, отжав галочку в соответсвующих местах при запуске нового торрента.




   Похожие торренты   Торрент   Размер 
В этой теме нет новых непрочитанных сообщений. Горячие парни [01-04 из 04] (2002) TVRip от torrentfilm

70 | 24

1.17 ГБ

В этой теме нет новых непрочитанных сообщений. Горячие губки, горячие ножки / Hot Lips Hot Legs (2003) DVDRip

13 | 49

700.4 МБ

В этой теме нет новых непрочитанных сообщений. Придурки (чудаки 2) / Jackass: Number Two (2006) DVD-Remux by GENADIY

170 | 17

4.33 ГБ

В этой теме нет новых непрочитанных сообщений. Парни из Бристоля / Bristol Boys (2006) DVDRip | P

94 | 39

690.14 МБ

В этой теме нет новых непрочитанных сообщений. Парни из женской общаги / Парни из женского общества / Sorority Boys (2002) DVDRip | A

108 | 13

1.46 ГБ

В этой теме нет новых непрочитанных сообщений. Все парни любят Мэнди Лейн / All the Boys Love Mandy Lane (2006) DVDRip

1 | 3

742.73 МБ

В этой теме нет новых непрочитанных сообщений. Самые горячие женщины планеты / Mystique: Hottest Women On Earth (2006) DVD5

33 | 11

3.43 ГБ




Вы не можете начинать темы
Вы не можете отвечать на сообщения
Вы не можете редактировать свои сообщения
Вы не можете удалять свои сообщения
Вы не можете добавлять вложения

Перейти:  
Для Мосгорсуда, Роскомнадзора и рекламодателей: mosgorsud-torrent[собачка]yandex.ru
 Вход
ppkBB3cker v.2 © 2008-2014 @ PPK
[ Time : 0.534s | 14 Queries | GZIP : Off ]

Торрент трекер RUTOR.IN, Не можете зайти на rutor.org? Какой новый адрес рутор? Какое зеркало рутор? Не работает rutor.org и зеркала? Тогда наш торрент специально для вас. Rutor.in неофициальное зеркало rutor. В случае если у Вас заблокирован rutor или вдруг Вы не можете на него зайти, то Вы без труда сможете скачать бесплатно и без рекламы последние новинки кино, игр, сериалов и прочего у нас, на Rutor.in. Не нужно использовать прокси, чтобы зайти на рутор, достаточно воспользоваться нашим ресурсом. Все новые фильмы, игры, сериалы, книги и музыка за 2013 и 2014 годы через торрент бесплатно. Скачивайте фильмы в хорошем качестве, игры для пк, xbox, playstation без регистрации. У нас вы найдете новые Зарубежные сериалы и Русские сериалы 2013, 2014, 2015 годов. Оставайтесь с нами, качайте любимые фильмы, игры, сериалы, книги и музыку.