img image001 image001 image001 image001 image001 image001 image001 image001 image001 image001 image001 image001 image001 image001 image001

Planets Sun Sun Sun
Статистика раздачи
Автор: Снежана | Размер: 2.87 ГБ | Добавлен: 25 июл 2013
Раздают: 0    Качают: 4
Скачать торрент
Скачать торрент
Описание торрента

СообщениеДобавлено: 25 июл 2013 


#77

Информация о фильме
Название: Секс по дружбе
Оригинальное название: Friends with Benefits
Год выхода: 2011
Жанр: комедия
Режиссер: Дэвид Добкин
В ролях: Дэннил Эклс, Райан Хансен, Зак Креггер, Андре Холлэнд, Джессика Лукас, Эль Янг, Патрик Хьюсингер

Описание: Компания двадцатилетних пытается разобраться в сложном и запутанном мире свиданий. Бен Уэймут ищет идеальную женщину, а его лучшая подруга, Сара Максвелл, ищет просто мужчину, с которым можно было бы завести семью. Бен и Сара давно привыкли обращаться друг к другу за моральной и физической помощью в то время, пока они ждут своих суженых. Их друг Аарон, романтик в душе, не одобряет непростую дружбу Бена и Сары, но он, как и бабник Хун, и прямолинейная Райли все заняты своими любовными невзгодами.



Страна: США
Продолжительность: ~ 00:22:00
Перевод: Любительский двухголосый - Gravi-TV

Файл
Кодек: x264
Качество: WEB-DL 720p
Видео: 1280x720(16:9), 23.976 fps, ~4000 kbps, ~0.175 bit/pixel
Аудио: Russian: 48 kHz, 6 ch, 384.00 kbps |Любительский двухголосный - |Gravi-TV|
Аудио 2: English: 48 kHz, 6 ch, 384.00 kbps |Original|
Субтитры: Отсутствуют

Семпл




Сезон 1 / Серия 1: Pilot
Сезон 1 / Серия 2: The Benefit of the Mute Button
Сезон 1 / Серия 3: The Benefit of the Unspoken Dynamic
Сезон 1 / Серия 4: The Benefit of Forgetting
Сезон 1 / Серия 5: The Benefit of Full Disclosure
Сезон 1 / Серия 6: The Benefit of Mardi Gras
Сезон 1 / Серия 7: The Benefit of Mentors
Сезон 1 / Серия 8: The Benefit of the Right Track
Сезон 1 / Серия 9: The Benefit of Being Shallow
Сезон 1 / Серия 10: The Benefit of Keeping Your Ego in Check
Сезон 1 / Серия 11: The Benefit of Avoiding the Mindbanger
Сезон 1 / Серия 12: The Benefit of Putting in the Work
Сезон 1 / Серия 13: The Benefit of Friends
General
Complete name : Friends.with.Benefits.S01E01.WEB-DL.720p.SnowRecords.mkv
Format : Matroska
File size : 733 MiB
Duration : 21mn 40s
Overall bit rate : 4 729 Kbps
Movie name : SnowRecords
Encoded date : UTC 2011-08-14 19:26:02
Writing application : mkvmerge v3.4.0 ('Rapunzel') сборка от May 15 2010 09:38:20
Writing library : libebml v0.8.0 + libmatroska v0.9.0

Video
ID : 1
Format : AVC
Format/Info : Advanced Video Codec
Format profile : High@L3.1
Format settings, CABAC : No
Format settings, ReFrames : 2 frames
Codec ID : V_MPEG4/ISO/AVC
Duration : 21mn 40s
Bit rate mode : Variable
Bit rate : 3 867 Kbps
Width : 1 280 pixels
Height : 720 pixels
Display aspect ratio : 16:9
Frame rate : 23.976 fps
Color space : YUV
Chroma subsampling : 4:2:0
Bit depth : 8 bits
Scan type : Progressive
Bits/(Pixel*Frame) : 0.175
Stream size : 599 MiB (82%)
Title : Friends.with.Benefits.S01E01.WEB-DL.720p.SnowRecords
Language : English
Color primaries : BT.709-5, BT.1361, IEC 61966-2-4, SMPTE RP177
Transfer characteristics : BT.709-5, BT.1361
Matrix coefficients : BT.709-5, BT.1361, IEC 61966-2-4 709, SMPTE RP177

Audio #1
ID : 2
Format : AC-3
Format/Info : Audio Coding 3
Mode extension : CM (complete main)
Codec ID : A_AC3
Duration : 21mn 40s
Bit rate mode : Constant
Bit rate : 384 Kbps
Channel(s) : 6 channels
Channel positions : Front: L C R, Side: L R, LFE
Sampling rate : 48.0 KHz
Bit depth : 16 bits
Stream size : 59.5 MiB (8%)
Title : Milarel & MiST
Language : Russian

Audio #2
ID : 3
Format : AC-3
Format/Info : Audio Coding 3
Mode extension : CM (complete main)
Codec ID : A_AC3
Duration : 21mn 40s
Bit rate mode : Constant
Bit rate : 384 Kbps
Channel(s) : 6 channels
Channel positions : Front: L C R, Side: L R, LFE
Sampling rate : 48.0 KHz
Bit depth : 16 bits
Stream size : 59.5 MiB (8%)
Title : Original
Language : English

Text
ID : 4
Format : UTF-8
Codec ID : S_TEXT/UTF8
Codec ID/Info : UTF-8 Plain Text
Title : notabenoid
Language : Russian
Раздача ведётся путём добавления новых серий; при каждом добавлении создаётся новый торрент. Чтобы начать докачку новой серии, пользователям необходимо сделать следующее:
(1) остановить скачивание,
(2) удалить старый торрент у себя из клиента (старые серии удалять не надо),
(3) скачать новый торрент и запустить его у себя в клиенте вместо старого, при этом указать клиенту путь в старую папку куда и должно происходить скачивание новых серий.
Ваш клиент при этом должен произвести хеширование (проверку) старой папки (если не производит сам - помогите ему сделать это), и будет докачивать только те серии которых у вас ещё нет. Старые серии при этом не удаляются, а продолжают раздаваться!
Eсли вы уже удалили старые серии, то предотвратить повторную закачку старых серий можно, отжав галочку в соответствующих местах при запуске нового торрента. По возможности, желательно не удалять старые серии как можно дольше чтобы релизёр не столько продолжал раздавать старые серии, а смог сконцентрироваться на новых.




   Похожие торренты   Торрент   Размер 
В этой теме нет новых непрочитанных сообщений. Секс по дружбе / Friends with Benefits [01x01-05] (2011) WEB-DLRip | Gravi-Tv

1 | 3

1.22 ГБ

В этой теме нет новых непрочитанных сообщений. Секс по дружбе / Friends with Benefits (2011) BDRip 720p | Лицензия R5

38 | 4

3.95 ГБ

В этой теме нет новых непрочитанных сообщений. Секс по дружбе / Friends with Benefits (2011) BDRip 720p от HELLYWOOD | Лицензия

276 | 46

5.37 ГБ

В этой теме нет новых непрочитанных сообщений. Секс по дружбе / Friends with Benefits (2011) BDRip 720p от Leonardo and Scarabey

536 | 46

2.87 ГБ

В этой теме нет новых непрочитанных сообщений. Секс по дружбе / Friends with Benefits (2011) Blu-Ray 1080p | D

3 | 6

33.82 ГБ

В этой теме нет новых непрочитанных сообщений. Секс По Дружбе / Friends With Benefits (2011) HDRip-AVC

165 | 20

744.44 МБ

В этой теме нет новых непрочитанных сообщений. OST - Секс по дружбе / Friends with Benefits from AGR (Unofficial) (2011) MP3

3 | 2

128.6 МБ




Вы не можете начинать темы
Вы не можете отвечать на сообщения
Вы не можете редактировать свои сообщения
Вы не можете удалять свои сообщения
Вы не можете добавлять вложения

Перейти:  
Для Мосгорсуда, Роскомнадзора и рекламодателей: mosgorsud-torrent[собачка]yandex.ru
 Вход
ppkBB3cker v.2 © 2008-2014 @ PPK
[ Time : 0.050s | 16 Queries | GZIP : Off ]

Торрент трекер RUTOR.IN, Не можете зайти на rutor.org? Какой новый адрес рутор? Какое зеркало рутор? Не работает rutor.org и зеркала? Тогда наш торрент специально для вас. Rutor.in неофициальное зеркало rutor. В случае если у Вас заблокирован rutor или вдруг Вы не можете на него зайти, то Вы без труда сможете скачать бесплатно и без рекламы последние новинки кино, игр, сериалов и прочего у нас, на Rutor.in. Не нужно использовать прокси, чтобы зайти на рутор, достаточно воспользоваться нашим ресурсом. Все новые фильмы, игры, сериалы, книги и музыка за 2013 и 2014 годы через торрент бесплатно. Скачивайте фильмы в хорошем качестве, игры для пк, xbox, playstation без регистрации. У нас вы найдете новые Зарубежные сериалы и Русские сериалы 2013, 2014, 2015 годов. Оставайтесь с нами, качайте любимые фильмы, игры, сериалы, книги и музыку.