img image001 image001 image001 image001 image001 image001 image001 image001 image001 image001 image001 image001 image001 image001 image001

Planets Sun Sun Sun
Статистика раздачи
Автор: Снежана | Размер: 811.06 МБ | Добавлен: 25 июл 2013
Раздают: 1    Качают: 2
Скачать торрент
Скачать торрент
Описание торрента

СообщениеДобавлено: 25 июл 2013 



Информация о фильме
Название: Альфреско
Оригинальное название: Alfresco
Год выхода: 1984
Жанр: Скетч
Режиссер: Стюарт Орм / Stuart Orme
В ролях: Стивен Фрай, Хью Лори, Робби Колтрейн, Бен Элтон, Шаван Редмонд, Эмма Томпсон

Описание: Британский телесериал в жанре скетч-шоу, с весьма популярными актёрами, такими как - Стивен Фрай, Хью Лори, Робби Колтрейн, Бен Элтон, Шаван Редмонд и Эмма Томпсон. Альфреско (итал. al fresco) в переводе на русский, означает "на свежем воздухе", что неспроста, т.к. действия шоу зачастую происходят вне студии.



Страна: Великобритания
Продолжительность: ~ 00:30:00
Перевод: Профессиональный (одноголосый закадровый) - Пётр Гланц

Файл
Кодек: XviD
Качество: DVDRip
Видео: 576x432 (1.33:1), 25 fps, 922 kbps avg, 0.15 bit/pixel
Аудио: 44.100 kHz, MPEG Layer 3, 2 ch, ~128.00 kbps avg [Russian]
Аудио 2: 44.100 kHz, MPEG Layer 3, 2 ch, ~128.00 kbps avg [English]
Субтитры: Отсутствуют

Семпл


General
Format : AVI
Format/Info : Audio Video Interleave
File size : 202 MiB
Duration : 23mn 40s
Overall bit rate : 1 194 Kbps
Writing application : VirtualDubMod 1.5.10.2 (build 2540/release)
Writing library : VirtualDubMod build 2540/release

Video
ID : 0
Format : MPEG-4 Visual
Format profile : Advanced Simple@L5
Format settings, BVOP : Yes
Format settings, QPel : No
Format settings, GMC : No warppoints
Format settings, Matrix : Default (H.263)
Codec ID : XVID
Codec ID/Hint : XviD
Duration : 23mn 40s
Bit rate : 923 Kbps
Width : 576 pixels
Height : 432 pixels
Display aspect ratio : 4:3
Frame rate : 25.000 fps
Color space : YUV
Chroma subsampling : 4:2:0
Bit depth : 8 bits
Scan type : Progressive
Bits/(Pixel*Frame) : 0.148
Stream size : 156 MiB (77%)
Writing library : XviD 1.2.1 (UTC 2008-12-04)

Audio #1
ID : 1
Format : MPEG Audio
Format version : Version 1
Format profile : Layer 3
Mode : Joint stereo
Mode extension : MS Stereo
Codec ID : 55
Codec ID/Hint : MP3
Duration : 23mn 40s
Bit rate mode : Constant
Bit rate : 128 Kbps
Channel(s) : 2 channels
Sampling rate : 44.1 KHz
Stream size : 21.7 MiB (11%)
Alignment : Split accross interleaves
Interleave, duration : 40 ms (1.00 video frame)
Interleave, preload duration : 500 ms

Audio #2
ID : 2
Format : MPEG Audio
Format version : Version 1
Format profile : Layer 3
Mode : Joint stereo
Mode extension : MS Stereo
Codec ID : 55
Codec ID/Hint : MP3
Duration : 23mn 40s
Bit rate mode : Constant
Bit rate : 128 Kbps
Channel(s) : 2 channels
Sampling rate : 44.1 KHz
Stream size : 21.7 MiB (11%)
Alignment : Split accross interleaves
Interleave, duration : 40 ms (1.00 video frame)
Interleave, preload duration : 500 ms
Раздача ведётся путём добавления новых серий; при каждом добавлении создаётся новый торрент. Чтобы начать докачку новой серии, пользователям необходимо сделать следующее:
(1) остановить скачивание,
(2) удалить старый торрент у себя из клиента (старые серии удалять не надо),
(3) скачать новый торрент и запустить его у себя в клиенте вместо старого, при этом указать клиенту путь в старую папку куда и должно происходить скачивание новых серий.
Ваш клиент при этом должен произвести хеширование (проверку) старой папки (если не производит сам - помогите ему сделать это), и будет докачивать только те серии которых у вас ещё нет. Старые серии при этом не удаляются, а продолжают раздаваться!
Eсли вы уже удалили старые серии, то предотвратить повторную закачку старых серий можно, отжав галочку в соответствующих местах при запуске нового торрента. По возможности, желательно не удалять старые серии как можно дольше чтобы релизёр не столько продолжал раздавать старые серии, а смог сконцентрироваться на новых.




   Похожие торренты   Торрент   Размер 
В этой теме нет новых непрочитанных сообщений. Альфреско / Alfresco [s01 - s02] (1983 - 1984) DVDRip от Brazzass

15 | 6

2.57 ГБ

В этой теме нет новых непрочитанных сообщений. Альфреско / Alfresco [S01] (1983) DVDRip

0 | 2

1.39 ГБ

В этой теме нет новых непрочитанных сообщений. Подводная Одиссея / SeaQuest DSV [s02x01-21] (1994) DVDRip

1 | 5

11.72 ГБ

В этой теме нет новых непрочитанных сообщений. Детектив Нэш Бриджес / Nash Bridges II [s02x01-023] (1997) DVDRip

1 | 3

10.98 ГБ

В этой теме нет новых непрочитанных сообщений. Scorpions - Super rock in Japan 1984 (1984) DVDRip от Kinobit

26 | 5

2.06 ГБ

В этой теме нет новых непрочитанных сообщений. Класс 1984 / Class of 1984 (1982) DVDRip от Кинорадиомагия | A

282 | 10

1.37 ГБ

В этой теме нет новых непрочитанных сообщений. 1984 / Тысяча девятьсот восемьдесят четвёртый) / 1984 / Nineteen Eighty-Four (1984) WEB-DLRip | P2

243 | 21

1.46 ГБ




Вы не можете начинать темы
Вы не можете отвечать на сообщения
Вы не можете редактировать свои сообщения
Вы не можете удалять свои сообщения
Вы не можете добавлять вложения

Перейти:  
Для Мосгорсуда, Роскомнадзора и рекламодателей: mosgorsud-torrent[собачка]yandex.ru
 Вход
ppkBB3cker v.2 © 2008-2014 @ PPK
[ Time : 0.051s | 16 Queries | GZIP : Off ]

Торрент трекер RUTOR.IN, Не можете зайти на rutor.org? Какой новый адрес рутор? Какое зеркало рутор? Не работает rutor.org и зеркала? Тогда наш торрент специально для вас. Rutor.in неофициальное зеркало rutor. В случае если у Вас заблокирован rutor или вдруг Вы не можете на него зайти, то Вы без труда сможете скачать бесплатно и без рекламы последние новинки кино, игр, сериалов и прочего у нас, на Rutor.in. Не нужно использовать прокси, чтобы зайти на рутор, достаточно воспользоваться нашим ресурсом. Все новые фильмы, игры, сериалы, книги и музыка за 2013 и 2014 годы через торрент бесплатно. Скачивайте фильмы в хорошем качестве, игры для пк, xbox, playstation без регистрации. У нас вы найдете новые Зарубежные сериалы и Русские сериалы 2013, 2014, 2015 годов. Оставайтесь с нами, качайте любимые фильмы, игры, сериалы, книги и музыку.
cron