img image001 image001 image001 image001 image001 image001 image001 image001 image001 image001 image001 image001 image001 image001 image001

Planets Sun Sun Sun
Статистика раздачи
Автор: Снежана | Размер: 2.45 ГБ | Добавлен: 25 июл 2013
Раздают: 192    Качают: 22
Скачать торрент
Скачать торрент
Описание торрента

СообщениеДобавлено: 25 июл 2013 

#77


Название: Смертельная схватка
Год выхода: 2010
Жанр: Военный
Режиссер: Александр Франскевич-Лайе
В ролях: Владимир Епифанцев, Анна Тараторкина, Александр Тютин, Александр Франскевич-Лайе, Дорота Делонг, Андрей Олефиренко

О фильме: Западная Белоруссия, октябрь 1944 года. Немецкое командование пытается помешать советским войскам войти в Восточную Пруссию. Чтобы исключить утечку информации о своих планах, фашисты используют в работе новый код, который предстоит разгадать советским радистам. Именно такое задание получают генерал-майор Жаров и его подчинённые. Охранять разведчиков приказано группе капитана Белова, которая уже однажды спасла генерала от нападения немецкого десанта. Личная охрана — не просто прихоть генерала. Дело в том, что какой-то неизвестный снайпер много раз пытался убить Жарова, но всякий раз эти попытки удачно предотвращались. Об этом известно всем в штабе. Белов предлагает привлечь к охране Жарова Ольгу Ершову — свою невесту и очень опытного снайпера, чтобы она помогла как можно быстрее вычислить и нейтрализовать неуловимого убийцу. Генерал прислушивается к мнению Белова и соглашается с его идеей. Но сможет ли девушка оправдать такое высокое доверие? Справится ли она с трудной и архиважной задачей?



Выпущено: Россия / "ВГТРК"
Продолжительность: 02:50:45
Язык: Русский


Кодек: H264/High@L4.1
Качество видео: DVDRip-AVC
Формат: MPEG-4
Видео: 1024x558, 16:9, 25 fps, ~1886 kbps avg, 0.132 bit/pixel
Аудио: AAC-LC, 48 kHz, 2 ch, VBR





Формат : MPEG-4
Профиль формата : Base Media
Идентификатор кодека : isom
Размер файла : 2,45 Гбайт
Продолжительность : 2 ч. 50 м.
Общий поток : 2053 Кбит/сек
Программа кодирования : Lavf53.6.0

Видео
Идентификатор : 1
Формат : AVC
Формат/Информация : Advanced Video Codec
Профиль формата : High@L4.1
Параметр CABAC формата : Да
Параметр ReFrames формата : 6 кадров
Идентификатор кодека : avc1
Идентификатор кодека/Информация : Advanced Video Coding
Продолжительность : 2 ч. 50 м.
Битрейт : 1886 Кбит/сек
Ширина : 1024 пикселя
Высота : 558 пикселей
Соотношение сторон : 16:9
Режим частоты кадров : Постоянный
Частота кадров : 25,000 кадров/сек
Цветовое пространство : YUV
Субдискретизация насыщенности : 4:2:0
Битовая глубина : 8 бит
Тип развёртки : Прогрессивная
Бит/(Пиксели*Кадры) : 0.132
Размер потока : 2,25 Гбайт (92%)
Библиотека кодирования : x264 core 116 r2019 9cc407d
Настройки программы : cabac=1 / ref=6 / deblock=1:0:0 / analyse=0x3:0x133 / me=umh / subme=7 / psy=1 / psy_rd=1.00:0.00 / mixed_ref=1 / me_range=16 / chroma_me=1 / trellis=2 / 8x8dct=1 / cqm=0 / deadzone=21,11 / fast_pskip=0 / chroma_qp_offset=-2 / threads=3 / sliced_threads=0 / nr=0 / decimate=0 / interlaced=0 / bluray_compat=0 / constrained_intra=0 / bframes=4 / b_pyramid=2 / b_adapt=2 / b_bias=0 / direct=3 / weightb=1 / open_gop=0 / weightp=2 / keyint=250 / keyint_min=25 / scenecut=40 / intra_refresh=0 / rc_lookahead=100 / rc=2pass / mbtree=1 / bitrate=1886 / ratetol=1.0 / qcomp=0.70 / qpmin=0 / qpmax=69 / qpstep=4 / cplxblur=20.0 / qblur=0.5 / ip_ratio=1.40 / aq=1:1.00

Аудио
Идентификатор : 2
Формат : AAC
Формат/Информация : Advanced Audio Codec
Профиль формата : LC
Идентификатор кодека : 40
Продолжительность : 2 ч. 50 м.
Вид битрейта : Переменный
Битрейт : 163 Кбит/сек
Максимальный битрейт : 165 Кбит/сек
Каналы : 2 канала
Расположение каналов : Front: L R
Частота : 48,0 КГц
Метод сжатия : С потерями
Размер потока : 199 Мбайт (8%)



   Похожие торренты   Торрент   Размер 
В этой теме нет новых непрочитанных сообщений. Смертельная схватка [01-04 из 04] (2010) DVDRip

26 | 7

2 ГБ

В этой теме нет новых непрочитанных сообщений. Смертельная схватка (2010) DVDRip

114 | 11

2.05 ГБ

В этой теме нет новых непрочитанных сообщений. Смертельная схватка (2010) DVDRip | КПК

20 | 3

560.22 МБ

В этой теме нет новых непрочитанных сообщений. Смертельная схватка (2010) DVD9

85 | 21

7.37 ГБ

В этой теме нет новых непрочитанных сообщений. Смертельная схватка [4 серии из 4] (2010) SATRip

66 | 15

1.88 ГБ

В этой теме нет новых непрочитанных сообщений. Шерлок Холмс и доктор Ватсон: Король шантажа. Смертельная схватка. Охота на тигра (1980) DVDRip от New-team

152 | 10

2.9 ГБ

В этой теме нет новых непрочитанных сообщений. Шерлок Холмс и доктор Ватсон: Король шантажа. Смертельная схватка. Охота на тигра. (1980) DVDRip от New-team

41 | 209

2.91 ГБ




Вы не можете начинать темы
Вы не можете отвечать на сообщения
Вы не можете редактировать свои сообщения
Вы не можете удалять свои сообщения
Вы не можете добавлять вложения

Перейти:  
Для Мосгорсуда, Роскомнадзора и рекламодателей: mosgorsud-torrent[собачка]yandex.ru
 Вход
ppkBB3cker v.2 © 2008-2014 @ PPK
[ Time : 1.271s | 13 Queries | GZIP : Off ]
CGP output time : 0.016s | 7 Queries | GZIP : Off

Торрент трекер RUTOR.IN, Не можете зайти на rutor.org? Какой новый адрес рутор? Какое зеркало рутор? Не работает rutor.org и зеркала? Тогда наш торрент специально для вас. Rutor.in неофициальное зеркало rutor. В случае если у Вас заблокирован rutor или вдруг Вы не можете на него зайти, то Вы без труда сможете скачать бесплатно и без рекламы последние новинки кино, игр, сериалов и прочего у нас, на Rutor.in. Не нужно использовать прокси, чтобы зайти на рутор, достаточно воспользоваться нашим ресурсом. Все новые фильмы, игры, сериалы, книги и музыка за 2013 и 2014 годы через торрент бесплатно. Скачивайте фильмы в хорошем качестве, игры для пк, xbox, playstation без регистрации. У нас вы найдете новые Зарубежные сериалы и Русские сериалы 2013, 2014, 2015 годов. Оставайтесь с нами, качайте любимые фильмы, игры, сериалы, книги и музыку.