img image001 image001 image001 image001 image001 image001 image001 image001 image001 image001 image001 image001 image001 image001 image001

Planets Sun Sun Sun
Статистика раздачи
Автор: Снежана | Размер: 4.04 ГБ | Добавлен: 25 июл 2013
Раздают: 12    Качают: 10
Скачать торрент
Скачать торрент
Описание торрента

СообщениеДобавлено: 25 июл 2013 

#77


Информация о фильме
Название: Абсолютная власть
Оригинальное название: Absolute Power
Год выхода: 2003 - 2005
Жанр: комедия
Режиссер: Бен Бартлетт
В ролях: Стивен Фрай,Джон Бёрд,Зои Телфорд,Джеймс Лэнс,Николас Барнс,Николя Редмонд,Майкл Фис

О фильме:
PR-агентство Чарльза Прентисса и Мартина Мак-Кейба расположено в самом центре Лондона. Это удобно, а главное, солидно. Если контора находится в таком месте, не таку уж и важно, чем она заниамается.

Тем более, что в данном случае имеет место продажа воздуха. С неподражаемым артистизмом дуэт Стивена Фрая и Джона Берда изображает беззастенчивых «комбинаторов» умственного труда, тружеников «черного» пимара и «грязных» политтехнологий.

Список серий
Первый сезон
1 серия — Историк
2 серия — Католический идол
3 серия — Женщина Тори
4 серия — Хитрая лисица
5 серия — Сельская жизнь
6 серия — Жги и круши
Второй сезон
1 серия — Кризис идентичности
2 серия — Суд
3 серия — Банк крови
4 серия — Любимец Нации
5 серия — Ленивая Америка
6 серия — Палата лордов


Страна: Великобритания
Студия: BBC Television Centre
Продолжительность: 12 серий ~ 00:30:00
Перевод: Профессиональный (многоголосый)

Файл
Кодек: H264
Качество: IPTVRip
Видео: 640 x 356 (1.798) at 25.000 fps/AVI at ~ 1673 Кбит/сек
Звук: MPEG Audio at 320 Кбит/сек/2 канала(ов), 44,1 КГц

MediaInfo
Видео
Идентификатор : 0
Формат : AVC
Формат/Информация : Advanced Video Codec
Профиль формата : Baseline@L3.0
Параметр CABAC формата : Нет
Параметр ReFrames формата : 1 кадр
Идентификатор кодека : H264
Продолжительность : 12 с.
Вид битрейта : Переменный
Битрейт : 1340 Кбит/сек
Максимальный битрейт : 1936 Кбит/сек
Ширина : 640 пикс.
Высота : 356 пикс.
Соотношение сторон : 16:9
Частота кадров : 25,000 кадр/сек
Частота кадров в оригинале : 24,000 кадр/сек
Цветовое пространство : YUV
Подвыборка цветности : 4:2:0
Битовая глубина : 8 бит
Тип развёртки : Прогрессивная
Бит/(Пиксели*Кадры) : 0.235
Размер потока : 279 Мбайт (80%)

Аудио
Идентификатор : 1
Формат : MPEG Audio
Версия формата : Version 1
Профиль формата : Layer 3
Режим : Joint stereo
Расширение режима : MS Stereo
Идентификатор кодека : 55
Идентификатор кодека/Подсказка : MP3
Продолжительность : 29 м.
Вид битрейта : Постоянный
Битрейт : 320 Кбит/сек
Канал(ы) : 2 канала(ов)
Частота : 44,1 КГц
Метод сжатия : С потерями
Размер потока : 66,7 Мбайт (19%)
Выравнивание : Соединение по промежуткам
Продолжительность промежутка : 26 мс. (0,65 видеокадр)
Библиотека кодирования : LAME3.97





















   Похожие торренты   Торрент   Размер 
В этой теме нет новых непрочитанных сообщений. Абсолютная власть / Absolute Power [S02] (2005) DVDRip от Scarabey | P

20 | 9

2.68 ГБ

В этой теме нет новых непрочитанных сообщений. Абсолютная власть / Absolute Power (1997) BDRip-AVC от New-Team

53 | 7

2.18 ГБ

В этой теме нет новых непрочитанных сообщений. Абсолютная власть / Absolute Power (1997) BDRip 1080p

159 | 98

11.56 ГБ

В этой теме нет новых непрочитанных сообщений. Абсолютная власть / Absolute Power (1997) BDRip от HQCLUB

4 | 3

2.18 ГБ

В этой теме нет новых непрочитанных сообщений. Абсолютная власть / Absolute Power (1997) DVDRip от ExKinoRay

2 | 2

2.16 ГБ

В этой теме нет новых непрочитанных сообщений. Абсолютная власть / Absolute Power (1997) BDRip-AVC от ExKinoRay | A

4 | 4

2.57 ГБ

В этой теме нет новых непрочитанных сообщений. Абсолютная власть / Absolute Power (1997) BDRip от New-Team

207 | 17

1.46 ГБ




Вы не можете начинать темы
Вы не можете отвечать на сообщения
Вы не можете редактировать свои сообщения
Вы не можете удалять свои сообщения
Вы не можете добавлять вложения

Перейти:  
Для Мосгорсуда, Роскомнадзора и рекламодателей: mosgorsud-torrent[собачка]yandex.ru
 Вход
ppkBB3cker v.2 © 2008-2014 @ PPK
[ Time : 0.054s | 15 Queries | GZIP : Off ]

Торрент трекер RUTOR.IN, Не можете зайти на rutor.org? Какой новый адрес рутор? Какое зеркало рутор? Не работает rutor.org и зеркала? Тогда наш торрент специально для вас. Rutor.in неофициальное зеркало rutor. В случае если у Вас заблокирован rutor или вдруг Вы не можете на него зайти, то Вы без труда сможете скачать бесплатно и без рекламы последние новинки кино, игр, сериалов и прочего у нас, на Rutor.in. Не нужно использовать прокси, чтобы зайти на рутор, достаточно воспользоваться нашим ресурсом. Все новые фильмы, игры, сериалы, книги и музыка за 2013 и 2014 годы через торрент бесплатно. Скачивайте фильмы в хорошем качестве, игры для пк, xbox, playstation без регистрации. У нас вы найдете новые Зарубежные сериалы и Русские сериалы 2013, 2014, 2015 годов. Оставайтесь с нами, качайте любимые фильмы, игры, сериалы, книги и музыку.
cron