img image001 image001 image001 image001 image001 image001 image001 image001 image001 image001 image001 image001 image001 image001 image001

Planets Sun Sun Sun
Статистика раздачи
Автор: Снежана | Размер: 10.75 ГБ | Добавлен: 25 июл 2013
Раздают: 1    Качают: 4
Скачать торрент
Скачать торрент
Описание торрента

СообщениеДобавлено: 25 июл 2013 

Братья Донелли / The Black Donnellys



Год выпуска: 2007
Страна: США
Жанр: криминал, драма
Продолжительность: 40-42 минут серия
Перевод: профессиональный многоголосый закадровый телеканал "Звезда"
Русские субтитры: нет
Субтитры: отсутствуют

Режиссёр: Пол Хаггис

В ролях: Майкл Сталь-Дэвид, Джонатан Такер, Том Гайри, Оливия Уайлд, Билли Луш, Кирк Асеведо, Кейт Ноббс, Питер Грин, Патрик Бреннан, Брайан Тарантина

Описание: Остросюжетный сериал, рассказывает о четырех братьях-ирландцах, выходцах из рабочей среды и вовлеченых в организованную преступность Нью-Йорка. Несмотря на жестокое окружение, братья Доннели остаются «хорошими ребятами», которые защищают друг друга, невзирая ни на что.Наряду с "Сопрано" и другими жемчужинами жанра,один из лучших криминальных сериалов!!!(ИМХО)



Доп. информация:
Список серий :
1: Pilot
2: A Stone of the Heart
3: The World Will Break Your Heart
4: Lies
5: Run Like Hell
6: The Only Thing Sure
7: In Each One a Savior
8: All of Us Are in the Gutter
9: When the Door Opens
10: Wasn't That Enough?
11: The Black Drop
12: Easy Is the Way
13: : God Is a Comedian

Сэмпл: http://multi-up.com/562712
Качество: DVDRip-AVC
Формат: MKV
Видео кодек: H.264
Аудио кодек: AC3
Видео: 720x576@1024x576 at 25.000 fps, x264@L3.0, ~2400 Kbps avg
Аудио: AC3 ,2/0 (L,R) ch ,48 kHz ,192.00 kbps MVO
Аудио 2: 48 kHz, AC3 Dolby Digital, 3/2 (L,C,R,l,r) + LFE ch, ~384.00 kbps avg original
Братья Доннелли. Полный Первый Сезон.DVDRip.x2641 СЕРИЯ.mkv
Формат : Matroska
Версия формата : Version 2
Размер файла : 907 Мбайт
Продолжительность : 42 м.
Общий поток : 2974 Кбит/сек
Дата кодирования : UTC 2011-09-22 19:37:10
Программа кодирования : mkvmerge v3.2.0 ('Beginnings') built on Feb 12 2010 16:46:17
Библиотека кодирования : libebml v0.7.9 + libmatroska v0.8.1

Видео
Идентификатор : 1
Формат : AVC
Формат/Информация : Advanced Video Codec
Профиль формата : Main@L3.0
Параметр CABAC формата : Да
Параметр ReFrames формата : 5 кадров
Идентификатор кодека : V_MPEG4/ISO/AVC
Продолжительность : 42 м.
Битрейт : 2339 Кбит/сек
Ширина : 720 пикс.
Высота : 576 пикс.
Соотношение сторон : 16:9
Частота кадров : 25,000 кадр/сек
Стандарт вещания : PAL
Цветовое пространство : YUV
Подвыборка цветности : 4:2:0
Битовая глубина : 8 бит
Тип развёртки : Прогрессивная
Бит/(Пиксели*Кадры) : 0.226
Размер потока : 714 Мбайт (79%)
Библиотека кодирования : x264 core 80
Настройки программы : cabac=1 / ref=5 / deblock=1:-2:-1 / analyse=0x1:0x111 / me=umh / subme=9 / psy=1 / psy_rd=1.0:0.2 / mixed_ref=1 / me_range=24 / chroma_me=1 / trellis=1 / 8x8dct=0 / cqm=0 / deadzone=6,6 / fast_pskip=1 / chroma_qp_offset=-4 / threads=3 / sliced_threads=0 / nr=0 / decimate=0 / mbaff=0 / constrained_intra=0 / bframes=3 / b_pyramid=0 / b_adapt=2 / b_bias=0 / direct=3 / wpredb=1 / wpredp=2 / keyint=250 / keyint_min=25 / scenecut=40 / rc_lookahead=30 / rc=crf / mbtree=1 / crf=19.0 / qcomp=0.80 / qpmin=10 / qpmax=51 / qpstep=4 / ip_ratio=1.10 / aq=1:0.50
Язык : English

Аудио #1
Идентификатор : 2
Формат : AC-3
Формат/Информация : Audio Coding 3
Расширение режима : CM (complete main)
Идентификатор кодека : A_AC3
Продолжительность : 42 м.
Вид битрейта : Постоянный
Битрейт : 192 Кбит/сек
Каналы : 2 канала
Расположение каналов : Front: L R
Частота : 48,0 КГц
Битовая глубина : 16 бит
Метод сжатия : С потерями
Размер потока : 58,6 Мбайт (6%)
Заголовок : MVO
Язык : Russian

Аудио #2
Идентификатор : 3
Формат : AC-3
Формат/Информация : Audio Coding 3
Расширение режима : CM (complete main)
Идентификатор кодека : A_AC3
Продолжительность : 42 м.
Вид битрейта : Постоянный
Битрейт : 384 Кбит/сек
Каналы : 6 каналов
Расположение каналов : Front: L C R, Side: L R, LFE
Частота : 48,0 КГц
Битовая глубина : 16 бит
Метод сжатия : С потерями
Размер потока : 117 Мбайт (13%)
Заголовок : 3/2+1
Язык : English







   Похожие торренты   Торрент   Размер 
В этой теме нет новых непрочитанных сообщений. Братья Доннелли / The Black Donnellys [S01] (2007) WEBRip от qqss44 | P

59 | 32

6.35 ГБ

В этой теме нет новых непрочитанных сообщений. Братья Доннелли / The Black Donnellys [S01] (2007) WEBRip 720p | P

89 | 61

12.62 ГБ

В этой теме нет новых непрочитанных сообщений. Братья по крови / Кровные братья / The Blood Brothers / Ci Ma (1973) DVDRip от SergV | Р2

2 | 6

1.46 ГБ

В этой теме нет новых непрочитанных сообщений. Чёрный дом / Black House (2007) DVDRip | L1

2 | 3

927.85 МБ

В этой теме нет новых непрочитанных сообщений. Черный рой / Black Swarm (2007) DVDRip

11 | 5

685.29 МБ

В этой теме нет новых непрочитанных сообщений. Чёрная гвоздика / The Black Pimpernel (2007) DVDRip | P2

191 | 53

1.49 ГБ

В этой теме нет новых непрочитанных сообщений. Хищные воды / Black Water (2007) DVDRip

29 | 11

1.37 ГБ




Вы не можете начинать темы
Вы не можете отвечать на сообщения
Вы не можете редактировать свои сообщения
Вы не можете удалять свои сообщения
Вы не можете добавлять вложения

Перейти:  
Для Мосгорсуда, Роскомнадзора и рекламодателей: mosgorsud-torrent[собачка]yandex.ru
 Вход
ppkBB3cker v.2 © 2008-2014 @ PPK
[ Time : 0.079s | 16 Queries | GZIP : Off ]

Торрент трекер RUTOR.IN, Не можете зайти на rutor.org? Какой новый адрес рутор? Какое зеркало рутор? Не работает rutor.org и зеркала? Тогда наш торрент специально для вас. Rutor.in неофициальное зеркало rutor. В случае если у Вас заблокирован rutor или вдруг Вы не можете на него зайти, то Вы без труда сможете скачать бесплатно и без рекламы последние новинки кино, игр, сериалов и прочего у нас, на Rutor.in. Не нужно использовать прокси, чтобы зайти на рутор, достаточно воспользоваться нашим ресурсом. Все новые фильмы, игры, сериалы, книги и музыка за 2013 и 2014 годы через торрент бесплатно. Скачивайте фильмы в хорошем качестве, игры для пк, xbox, playstation без регистрации. У нас вы найдете новые Зарубежные сериалы и Русские сериалы 2013, 2014, 2015 годов. Оставайтесь с нами, качайте любимые фильмы, игры, сериалы, книги и музыку.
cron