img image001 image001 image001 image001 image001 image001 image001 image001 image001 image001 image001 image001 image001 image001 image001

Planets Sun Sun Sun
Статистика раздачи
Автор: Снежана | Размер: 8.67 ГБ | Добавлен: 25 июл 2013
Раздают: 3    Качают: 6
Скачать торрент
Скачать торрент
Описание торрента

СообщениеДобавлено: 25 июл 2013 



Информация о фильме
Название: Горячев и другие
Год выхода: 1992-1994
Жанр: остросюжетный сериал
Режиссер: Юрий Беленький
В ролях: Игорь Бочкин,Людмила Чурсина,Алексей Гуськов,Инга Ильм,Анна Каменкова,Всеволод Ларионов,Татьяна Панкова,Игорь Верник,Юрий Думчев,Ирина Михалева

О фильме:
Один из первых российских сериалов о бизнесмене Горячеве. Борьба почти без правил в современной «новой русской» жизни, где, чтобы выжить и преуспеть, надо победить своих противников. И, конечно, любовь…

Страна: Россия
Продолжительность: 15:20:03
Перевод: Не требуется

Файл
Кодек: MPEG 2
Качество: VHSRip
Видео: MPEG 2,1054kbps,352x288,4:3,25 fps,PAL
Звук:
MPEG Layer 2,224kbps,2ch,48,0kHz

Формат : MPEG-PS
Размер файла : 1024 Мбайт
Продолжительность : 1 ч. 49 м.
Общий поток : 1304 Кбит/сек

Видео
Идентификатор : 224 (0xE0)
Формат : MPEG Video
Версия формата : Version 2
Профиль формата : Main@Main
Параметр BVOP формата : Да
Параметр матрицы формата : По умолчанию
Параметры GOP формата : M=3, N=15
Продолжительность : 1 ч. 49 м.
Вид битрейта : Постоянный
Битрейт : 1054 Кбит/сек
Номинальный битрейт : 1000 Кбит/сек
Ширина : 352 пикс.
Высота : 288 пикс.
Соотношение сторон : 4:3
Частота кадров : 25,000 кадр/сек
Стандарт вещания : PAL
Цветовое пространство : YUV
Подвыборка цветности : 4:2:0
Битовая глубина : 8 бит
Тип развёртки : Чересстрочная
Порядок развёртки : Нижнее поле первое
Метод сжатия : С потерями
Бит/(Пиксели*Кадры) : 0.416
Размер потока : 828 Мбайт (81%)

Аудио
Идентификатор : 192 (0xC0)
Формат : MPEG Audio
Версия формата : Version 1
Профиль формата : Layer 2
Продолжительность : 1 ч. 49 м.
Вид битрейта : Постоянный
Битрейт : 224 Кбит/сек
Каналы : 2 канала
Частота : 48,0 КГц
Метод сжатия : С потерями
Задержка видео : -424 мс.
Размер потока : 176 Мбайт (17%)


Семпл




   Похожие торренты   Торрент   Размер 
В этой теме нет новых непрочитанных сообщений. Горячев А.В. - Информатика и ИКТ (2011) PDF

0 | 1

11.85 МБ

В этой теме нет новых непрочитанных сообщений. Прикосновение (1992) VHSRip

10 | 1

1.36 ГБ

В этой теме нет новых непрочитанных сообщений. Щедрость (1992) VHSRip

36 | 16

180.71 МБ

В этой теме нет новых непрочитанных сообщений. Прикосновение (1992) VHSRip

46 | 3

799.99 МБ

В этой теме нет новых непрочитанных сообщений. Последний герой (1992) VHSRip

7 | 2

630.42 МБ

В этой теме нет новых непрочитанных сообщений. Секс-сказка (1992) VHSRip

43 | 9

938.95 МБ

В этой теме нет новых непрочитанных сообщений. Чувствительный милиционер (1992) VHSRip

24 | 1

1.37 ГБ




Вы не можете начинать темы
Вы не можете отвечать на сообщения
Вы не можете редактировать свои сообщения
Вы не можете удалять свои сообщения
Вы не можете добавлять вложения

Перейти:  
Для Мосгорсуда, Роскомнадзора и рекламодателей: mosgorsud-torrent[собачка]yandex.ru
 Вход
ppkBB3cker v.2 © 2008-2014 @ PPK
[ Time : 0.048s | 16 Queries | GZIP : Off ]

Торрент трекер RUTOR.IN, Не можете зайти на rutor.org? Какой новый адрес рутор? Какое зеркало рутор? Не работает rutor.org и зеркала? Тогда наш торрент специально для вас. Rutor.in неофициальное зеркало rutor. В случае если у Вас заблокирован rutor или вдруг Вы не можете на него зайти, то Вы без труда сможете скачать бесплатно и без рекламы последние новинки кино, игр, сериалов и прочего у нас, на Rutor.in. Не нужно использовать прокси, чтобы зайти на рутор, достаточно воспользоваться нашим ресурсом. Все новые фильмы, игры, сериалы, книги и музыка за 2013 и 2014 годы через торрент бесплатно. Скачивайте фильмы в хорошем качестве, игры для пк, xbox, playstation без регистрации. У нас вы найдете новые Зарубежные сериалы и Русские сериалы 2013, 2014, 2015 годов. Оставайтесь с нами, качайте любимые фильмы, игры, сериалы, книги и музыку.