img image001 image001 image001 image001 image001 image001 image001 image001 image001 image001 image001 image001 image001 image001 image001

Planets Sun Sun Sun
Статистика раздачи
Автор: Снежана | Размер: 10.26 ГБ | Добавлен: 25 июл 2013
Раздают: 13    Качают: 35
Скачать торрент
Скачать торрент
Описание торрента

СообщениеДобавлено: 25 июл 2013 

Узнай врага / Спящая Ячейка / Sleeper Cell 1,2 СЕЗОН



Год выпуска: 2005-2006
Страна: США
Жанр: триллер, драма, боевик
Продолжительность: 50-60 минут серия
Перевод: профессиональный многоголосый закадровый телеканал "FOX Crime"
Русские субтитры: нет
Субтитры: отсутствуют

Режиссёр: Ник Гомез, Гай Ферленд, Чарльз С. Даттон

В ролях: Майкл Или (Darwyn Al-Sayeed), Одед Фер (Farik), Генри Любатти (Ilija Korjenic), Мелисса Сейджмиллер (Gayle Bishop), Джейк Солдера (Marcus Bishop), Алекс Несич *(Christian Aumont), Блейк Шилдс (Thomas 'Tommy' Emerson), Карлос Гомес (SAC Edgar Diaz), Майкл Десанте (Special Agent Alim Saleh) и др.

Описание: Драма раскрывает войну с терроризмом с захватывающей и уникальной точки зрения. Звезда сериала, Майкл Или, играет роль агента ФБР, работающего под прикрытием, который внедряется в Исламистскую террористическую группировку, действующую на территории США. Террористы под предводительством безжалостного лидера в исполнении Одеда Фера готовят крупный теракт. Враг намного ближе, чем мы думаем, он среди нас…Один из лучших сериалов о спецслужбах!!!



Доп. информация:
Список серий :
1 СЕЗОН :
Эпизод 1-Al-Faitha 4 декабря 2005
Эпизод 2-Target 5 декабря 2005
Эпизод 3-Money 6 декабря 2005
Эпизод 4-Scholar 7 декабря 2005
Эпизод 5-Soldier 11 декабря 2005
Эпизод 6-Family 12 декабря 2005
Эпизод 7-Immigrant 13 декабря 2005
Эпизод 8-Intramural 14 декабря 2005
Эпизод 9-Hijack 18 декабря 2005
Эпизод 10-Youmud Din

2 СЕЗОН :
Эпизод 1-Al-Baqara 10 декабря 2006
Эпизод 2-Salesman 11 декабря 2006
Эпизод 3-Torture 12 декабря 2006
Эпизод 4-Faith 13 декабря 2006
Эпизод 5-Home 14 декабря 2006
Эпизод 6-School 12 января 2007
Эпизод 7-Fitna 16 декабря 2006
Эпизод 8-Reunion 17 декабря 2006

Сэмпл: http://multi-up.com/566409
Качество: WEBDLRip-AVC
Формат: MKV
Видео кодек: H.264
Аудио кодек: AC3
Видео: 852x480 at 23.976 fps, x264@4.1, ~1250 Kbps avg
Аудио: AC3 ,2/0 (L,R) ch ,48 kHz ,192.00 kbps MVO

СПЯЩАЯ ЯЧЕЙКА1 СЕЗОН1 СЕРИЯ.mkv
Формат : Matroska
Версия формата : Version 2
Размер файла : 600 Мбайт
Продолжительность : 59 м.
Общий поток : 1421 Кбит/сек
Дата кодирования : UTC 2011-09-29 21:44:29
Программа кодирования : mkvmerge v3.2.0 ('Beginnings') built on Feb 12 2010 16:46:17
Библиотека кодирования : libebml v0.7.9 + libmatroska v0.8.1

Видео
Идентификатор : 1
Формат : AVC
Формат/Информация : Advanced Video Codec
Профиль формата : High@L4.1
Параметр CABAC формата : Да
Параметр ReFrames формата : 5 кадров
Идентификатор кодека : V_MPEG4/ISO/AVC
Продолжительность : 59 м.
Битрейт : 1227 Кбит/сек
Ширина : 852 пикс.
Высота : 480 пикс.
Соотношение сторон : 16:9
Частота кадров : 23,976 кадр/сек
Цветовое пространство : YUV
Подвыборка цветности : 4:2:0
Битовая глубина : 8 бит
Тип развёртки : Прогрессивная
Бит/(Пиксели*Кадры) : 0.125
Размер потока : 507 Мбайт (84%)
Библиотека кодирования : x264 core 115 r2008 4c552d8
Настройки программы : cabac=1 / ref=5 / deblock=1:0:0 / analyse=0x3:0x113 / me=umh / subme=9 / psy=1 / psy_rd=1.00:0.00 / mixed_ref=1 / me_range=24 / chroma_me=1 / trellis=1 / 8x8dct=1 / cqm=0 / deadzone=21,11 / fast_pskip=1 / chroma_qp_offset=-2 / threads=12 / sliced_threads=0 / nr=0 / decimate=1 / interlaced=0 / bluray_compat=0 / constrained_intra=0 / bframes=3 / b_pyramid=2 / b_adapt=1 / b_bias=0 / direct=1 / weightb=1 / open_gop=0 / weightp=2 / keyint=250 / keyint_min=23 / scenecut=40 / intra_refresh=0 / rc_lookahead=40 / rc=2pass / mbtree=1 / bitrate=1227 / ratetol=1.0 / qcomp=0.60 / qpmin=0 / qpmax=69 / qpstep=4 / cplxblur=20.0 / qblur=0.5 / vbv_maxrate=10000 / vbv_bufsize=7500 / nal_hrd=none / ip_ratio=1.40 / aq=1:1.00
Язык : English
Основные цвета : BT.709-5, BT.1361, IEC 61966-2-4, SMPTE RP177
Характеристики трансфера : BT.709-5, BT.1361
Коэффициенты матрицы : BT.709-5, BT.1361, IEC 61966-2-4 709, SMPTE RP177

Аудио
Идентификатор : 2
Формат : AC-3
Формат/Информация : Audio Coding 3
Расширение режима : CM (complete main)
Идентификатор кодека : A_AC3
Продолжительность : 59 м.
Вид битрейта : Постоянный
Битрейт : 192 Кбит/сек
Каналы : 2 канала
Расположение каналов : Front: L R
Частота : 48,0 КГц
Битовая глубина : 16 бит
Метод сжатия : С потерями
Размер потока : 81,1 Мбайт (14%)
Язык : Russian







   Похожие торренты   Торрент   Размер 
В этой теме нет новых непрочитанных сообщений. Ячейка Гординых / Gordin cell [S01] (2011) TVRip

1 | 7

5.72 ГБ

В этой теме нет новых непрочитанных сообщений. Ёсимото Банана - Спящая (2006) FB2, TXT

13 | 6

657.59 КБ

В этой теме нет новых непрочитанных сообщений. В тылу врага 2 / Faces of War (2006) PC

3143 | 224

1.64 ГБ

В этой теме нет новых непрочитанных сообщений. Splinter Cell: Chaos Theory (2005) MAC

29 | 6

3.75 ГБ

В этой теме нет новых непрочитанных сообщений. Чайковский: Спящая красавица / Tchaikovsky: Sleeping Beauty (театр Ковент-Гарден) (2006) BDRip 720p

8 | 4

7.91 ГБ

В этой теме нет новых непрочитанных сообщений. Tom Clancy's Splinter Cell: Трилогия (2003-2005) PC | Rip

190 | 22

5.06 ГБ

В этой теме нет новых непрочитанных сообщений. Tom Clancy's Splinter Cell: Chaos Theory (2005) PC

149 | 15

4.46 ГБ




Вы не можете начинать темы
Вы не можете отвечать на сообщения
Вы не можете редактировать свои сообщения
Вы не можете удалять свои сообщения
Вы не можете добавлять вложения

Перейти:  
Для Мосгорсуда, Роскомнадзора и рекламодателей: mosgorsud-torrent[собачка]yandex.ru
 Вход
ppkBB3cker v.2 © 2008-2014 @ PPK
[ Time : 0.526s | 16 Queries | GZIP : Off ]

Торрент трекер RUTOR.IN, Не можете зайти на rutor.org? Какой новый адрес рутор? Какое зеркало рутор? Не работает rutor.org и зеркала? Тогда наш торрент специально для вас. Rutor.in неофициальное зеркало rutor. В случае если у Вас заблокирован rutor или вдруг Вы не можете на него зайти, то Вы без труда сможете скачать бесплатно и без рекламы последние новинки кино, игр, сериалов и прочего у нас, на Rutor.in. Не нужно использовать прокси, чтобы зайти на рутор, достаточно воспользоваться нашим ресурсом. Все новые фильмы, игры, сериалы, книги и музыка за 2013 и 2014 годы через торрент бесплатно. Скачивайте фильмы в хорошем качестве, игры для пк, xbox, playstation без регистрации. У нас вы найдете новые Зарубежные сериалы и Русские сериалы 2013, 2014, 2015 годов. Оставайтесь с нами, качайте любимые фильмы, игры, сериалы, книги и музыку.