img image001 image001 image001 image001 image001 image001 image001 image001 image001 image001 image001 image001 image001 image001 image001

Planets Sun Sun Sun
Статистика раздачи
Автор: Снежана | Размер: 4.64 ГБ | Добавлен: 25 июл 2013
Раздают: 0    Качают: 4
Скачать торрент
Скачать торрент
Описание торрента

СообщениеДобавлено: 25 июл 2013 

#77

Малышка К / Killer K / Girl K /小女孩K / Sonyeo K

Страна: Южная Корея
Жанр: экшн, триллер
Год выпуска: 2011
Продолжительность: 3 серий ~ 1 чаc

Перевод: Любительский (двухголосый закадровый)
Cубтитры: русские - хардсаба нет
Оригинальная аудиодорожка: Корейская

Режиссер: Ким Чжон Хён / Kim Jong Hyun

В ролях: Хан Гру - Чха Ён Чжин
Ким Чжон Тхэ - Ю Сон Хо
Пак Хё Чжу - Мин Чжи Ё
Пэк До Бин - Чхве Тхэ Ён
Ким Ро Ха - Чан Се Ук
Чжун Ми Сон - Чха Ин Сук
Чжун Гук Хван - Квон До Хван
Ким Дон Чжун - Ко Ён Мин
Пэ Ну Ри - Наль На Ри

Описание:
Внешне у старшеклассницы Чха Ён Чжин обычная жизнь и скрытный характер, но под этой маской скрывается ее истинное лицо: она профессиональный киллер, который ищет своего биологического отца, дабы отомстить за свою мать.

Релиз группы:

Доп. информация: Перевод осуществляла команда фансаб-группы "Альянс"

Перевод: Selena Min
Редактура: Daleko

Озвучивание Ворон и Трина Дубовицкая

Качество видео: 720р HDTV - Сэмпл
Формат видео: MKV
Видео: 1280x720 (1.78:1), 23,976 fps, H.264/AVC Encoder ~2965 kbps avg, 0.134 bit/pixel
Аудио: 48 kHz, AC3 Dolby Digital, 2/0 (L,R) ch, ~192 kbps (Русский)
Аудио 2: 48 kHz, AC3 Dolby Digital, 2/0 (L,R) ch, ~192 kbps (Корейский)
Формат субтитров: softsub (SRT)




Формат : Matroska
Версия формата : Version 2
Размер файла : 1,54 Гбайт
Продолжительность : 1 ч. 5 м.
Общий поток : 3351 Кбит/сек
Дата кодирования : UTC 2011-10-17 21:54:08
Программа кодирования : mkvmerge v5.0.0 ('Die Wahre Liebe') built on Sep 25 2011 20:33:49
Библиотека кодирования : libebml v1.2.2 + libmatroska v1.3.0

Видео
Идентификатор : 1
Формат : AVC
Формат/Информация : Advanced Video Codec
Профиль формата : High@L4.1
Параметр CABAC формата : Да
Параметр ReFrames формата : 5 кадров
Идентификатор кодека : V_MPEG4/ISO/AVC
Продолжительность : 1 ч. 5 м.
Битрейт : 2965 Кбит/сек
Ширина : 1280 пикселей
Высота : 720 пикселей
Соотношение сторон : 16:9
Частота кадров : 23,976 кадра/сек
Цветовое пространство : YUV
Субдискретизация насыщенности : 4:2:0
Битовая глубина : 8 бит
Тип развёртки : Прогрессивная
Бит/(Пиксели*Кадры) : 0.134
Размер потока : 1,34 Гбайт (87%)
Библиотека кодирования : x264 core 116 r2074 2641b9e
Настройки программы : cabac=1 / ref=5 / deblock=1:-3:-3 / analyse=0x3:0x113 / me=umh / subme=7 / psy=1 / psy_rd=1.00:0.00 / mixed_ref=1 / me_range=24 / chroma_me=1 / trellis=1 / 8x8dct=1 / cqm=0 / deadzone=21,11 / fast_pskip=0 / chroma_qp_offset=-2 / threads=6 / sliced_threads=0 / nr=0 / decimate=1 / interlaced=0 / bluray_compat=0 / constrained_intra=0 / bframes=5 / b_pyramid=2 / b_adapt=2 / b_bias=0 / direct=3 / weightb=1 / open_gop=0 / weightp=2 / keyint=250 / keyint_min=23 / scenecut=40 / intra_refresh=0 / rc_lookahead=40 / rc=2pass / mbtree=1 / bitrate=2965 / ratetol=1.0 / qcomp=0.60 / qpmin=10 / qpmax=51 / qpstep=4 / cplxblur=20.0 / qblur=0.5 / ip_ratio=1.40 / aq=1:1.00

Аудио #1
Идентификатор : 2
Формат : AC-3
Формат/Информация : Audio Coding 3
Расширение режима : CM (complete main)
Идентификатор кодека : A_AC3
Продолжительность : 1 ч. 5 м.
Вид битрейта : Постоянный
Битрейт : 192 Кбит/сек
Каналы : 2 канала
Расположение каналов : Front: L R
Частота : 48,0 КГц
Битовая глубина : 16 бит
Метод сжатия : С потерями
Размер потока : 90,6 Мбайт (6%)
Заголовок : AC3 2ch 192kbps DVO
Язык : Russian

Аудио #2
Идентификатор : 3
Формат : AC-3
Формат/Информация : Audio Coding 3
Расширение режима : CM (complete main)
Идентификатор кодека : A_AC3
Продолжительность : 1 ч. 5 м.
Вид битрейта : Постоянный
Битрейт : 192 Кбит/сек
Каналы : 2 канала
Расположение каналов : Front: L R
Частота : 48,0 КГц
Битовая глубина : 16 бит
Метод сжатия : С потерями
Задержка видео : 11 мс.
Размер потока : 90,6 Мбайт (6%)
Заголовок : AC3 2ch 192kbps
Язык : Korean

Текст
Идентификатор : 4
Формат : UTF-8
Идентификатор кодека : S_TEXT/UTF8
Идентификатор кодека/Информация : UTF-8 Plain Text
Заголовок : Фансаб-группа «Альянс»
Язык : Russian



Внимание! Раздача ведётся путём добавления новых серий
Субтитры выложены с разрешения фансаб-группы "Альянс"



   Похожие торренты   Торрент   Размер 
В этой теме нет новых непрочитанных сообщений. Девчонки / Sonyeo x sonyeo (2007) TVRip

0 | 1

815.05 МБ

В этой теме нет новых непрочитанных сообщений. Малышка на миллион / Million Dollar Baby (2004) BDRip 720p от Element team

13 | 6

2.19 ГБ

В этой теме нет новых непрочитанных сообщений. Как выйти замуж за миллиардера / Chalet Girl (2011) BDRip 720p от Element team

22 | 1

2.19 ГБ

В этой теме нет новых непрочитанных сообщений. Zombie Girl - Killer Queen [Deluxe] (2015) FLAC

43 | 6

840.71 МБ

В этой теме нет новых непрочитанных сообщений. Малышка на миллион / Million Dollar Baby (2004) BDRip 1080p от Element team

20 | 5

4.37 ГБ

В этой теме нет новых непрочитанных сообщений. Признание убийцы / Naega Salinbeomida / Confession of Murder / I'm A Killer (2012) 720p BDRip от BTT-TEAM и ФСГ *Альянс*

24 | 1

6.27 ГБ

В этой теме нет новых непрочитанных сообщений. Клоуны-убийцы из космоса / Killer Klowns from Outer Space (1988) HDTV 720p от Brazzass

17 | 3

1.97 ГБ




Вы не можете начинать темы
Вы не можете отвечать на сообщения
Вы не можете редактировать свои сообщения
Вы не можете удалять свои сообщения
Вы не можете добавлять вложения

Перейти:  
Для Мосгорсуда, Роскомнадзора и рекламодателей: mosgorsud-torrent[собачка]yandex.ru
 Вход
ppkBB3cker v.2 © 2008-2014 @ PPK
[ Time : 0.049s | 17 Queries | GZIP : Off ]

Торрент трекер RUTOR.IN, Не можете зайти на rutor.org? Какой новый адрес рутор? Какое зеркало рутор? Не работает rutor.org и зеркала? Тогда наш торрент специально для вас. Rutor.in неофициальное зеркало rutor. В случае если у Вас заблокирован rutor или вдруг Вы не можете на него зайти, то Вы без труда сможете скачать бесплатно и без рекламы последние новинки кино, игр, сериалов и прочего у нас, на Rutor.in. Не нужно использовать прокси, чтобы зайти на рутор, достаточно воспользоваться нашим ресурсом. Все новые фильмы, игры, сериалы, книги и музыка за 2013 и 2014 годы через торрент бесплатно. Скачивайте фильмы в хорошем качестве, игры для пк, xbox, playstation без регистрации. У нас вы найдете новые Зарубежные сериалы и Русские сериалы 2013, 2014, 2015 годов. Оставайтесь с нами, качайте любимые фильмы, игры, сериалы, книги и музыку.