img image001 image001 image001 image001 image001 image001 image001 image001 image001 image001 image001 image001 image001 image001 image001

Planets Sun Sun Sun
Статистика раздачи
Автор: Снежана | Размер: 32.68 ГБ | Добавлен: 25 июл 2013
Раздают: 17    Качают: 18
Скачать торрент
Скачать торрент
Описание торрента

СообщениеДобавлено: 25 июл 2013 

#77

Информация о фильме
Название: Однажды в Одессе / Жизнь и приключения Мишки Япончика
Год выхода: 2011
Жанр: Драма, мелодрама
Режиссер: Сергей Гинзбург
В ролях: Евгений Ткачук, Елена Шамова, Валентин Гафт, Римма Маркова, Всеволод Шиловский, Владимир Долинский, Алексей Филимонов, Вадим Норштейн, Илья Лыков, Игорь Арташонов, Артем Ткаченко, Александр Лазарев (младший), Игорь Савочкин, Сергей Марин (II), Олег Школьник, Ирина Токарчук, Валерий Бассэль, Екатерина Копанова, Яна Поплавская, Андрей Ургант, Александр Ильин, Павел Прилучный, Михаил Богдасаров, Владимир Гусев (II), Сергей Романович, Александр Карпов (III), Константин Самоуков, Анатолий Кот, Артем Осипов, Кирилл Полухин, Сабина Ахмедова, Алексей Гаврилов, Виталий Хаев, Екатерина Рубашкина, Александр Робак, Кристина Кучеренко, Анатолий Отраднов, Анвар Халилулаев, Павел Лысенок, Юлия Сорокина, Александр Хинкис, Юлия Колодюк, Илья Дель

О фильме: Мишка Японец — не просто обычный налетчик с одесским колоритом. Стать королем воров, держать в страхе весь город, и одновременно быть народным любимцем мог только человек неординарный. Его популярность колоссальна — в нем видят «Робин Гуда», который радеет за народ, он утверждает свой «кодекс налетчика» — бедняков не грабить, не трогать врачей, юристов, артистов. Его налеты становятся все более артистичными и остроумными, это маленькие спектакли. Миша расчетлив, рационален, но у него широкая душа: он закатывает пиры для всей Молдаванки, снабжает деньгами безработных грузчиков, помогает деньгами и продуктами молодоженам, сиротам, бездомным и даже семьям жертв бандитских налетов.
Он пробыл Королем всего три года — с 1917 по 1919-й. Это были три самые яркие года из жизни Япончика, переполненные событиями, на которые у других не хватило бы целой жизни…


Страна: Россия
Продолжительность: 12 х ~00:50:00
Перевод: Не требуется

Общее
Complete name : Mishka Yapon4ikSeriya_01VIDEO_TSVTS_01_1.VOB
Format : MPEG-PS
File size : 1008 Мбайт
Duration : 18 м.
Overall bit rate mode : Переменный
Overall bit rate : 7607 Кбит/сек

Видео
ID : 224 (0xE0)
Format : MPEG Video
Format version : Version 2
Format profile : Main@Main
Format settings, BVOP : Да
Format settings, Matrix : По умолчанию
Format settings, GOP : M=3, N=12
Duration : 18 м.
Bit rate mode : Переменный
Bit rate : 7263 Кбит/сек
Maximum bit rate : 8000 Кбит/сек
Width : 720 пикселей
Height : 576 пикселей
Display aspect ratio : 16:9
Frame rate : 25,000 кадров/сек
Standard : PAL
Color space : YUV
Chroma subsampling : 4:2:0
Bit depth : 8 бит
Scan type : Чересстрочная
Scan order : Верхнее поле первое
Compression mode : С потерями
Bits/(Pixel*Frame) : 0.701
Stream size : 962 Мбайт (95%)

Аудио
ID : 189 (0xBD)-128 (0x80)
Format : AC-3
Format/Info : Audio Coding 3
Mode extension : CM (complete main)
Muxing mode : DVD-Video
Duration : 18 м.
Bit rate mode : Постоянный
Bit rate : 192 Кбит/сек
Channel(s) : 2 канала
Channel positions : Front: L R
Sampling rate : 48,0 КГц
Bit depth : 16 бит
Compression mode : С потерями
Stream size : 25,4 Мбайт (3%)

Меню

Title:
Size: 2.73 Gb ( 2 862 746 KBytes ) - DVD-5
Enabled regions: 1, 2, 3, 4, 5, 6, 7, 8

VTS_01 :
Play Length: 00:52:05
Video: PAL 16:9 (720x576) VBR, Auto Pan&Scan, Auto Letterboxed
Audio:
Not specified (Dolby AC3, 2 ch)


Файл
Качество: DVD5
Формат: MPEG
Видео кодек: MPEG2
Аудио кодек: AC3
Видео: PAL, 16:9, 720x576@1024x576, ~8000 kbps
Аудио: AC3, 48,0 Hz, 2 ch, 192 kbps

Семпл

По тех.причинам Автор предыдущей раздачи не смог дораздать материал. Эта раздача от другого Автора, и тут всё впорядке. Размеры раздач не совпадают, поэтому кто качал прошлую раздачу - вариант или докачать серии с этой, или начать качать заного, чтобы иметь 100% с этой раздачи.

















   Похожие торренты   Торрент   Размер 
В этой теме нет новых непрочитанных сообщений. OST - Однажды в Одессе / Жизнь и приключения Мишки Япончика (2011) MP3

140 | 4

80.33 МБ

В этой теме нет новых непрочитанных сообщений. Однажды в Одессе / Жизнь и приключения Мишки Япончика [01-12 из 12] (2011) WEB-DLRip-AVC

244 | 34

7.83 ГБ

В этой теме нет новых непрочитанных сообщений. Однажды в Одессе / Жизнь и приключения Мишки Япончика [01-12 из 12] (2011) DVDRip-AVC

756 | 130

8.35 ГБ

В этой теме нет новых непрочитанных сообщений. Однажды в Одессе / Жизнь и приключения Мишки Япончика [01-12 из 12] (2011) WEB-DL (720p)

603 | 103

17.51 ГБ

В этой теме нет новых непрочитанных сообщений. Однажды в Одессе / Жизнь и приключения Мишки Япончика [01-12 из 12] (2011) DVDRip от MediaClub | КПК

640 | 98

3.6 ГБ

В этой теме нет новых непрочитанных сообщений. Однажды в Одессе / Жизнь и приключения Мишки Япончика [01-12 из 12] (2011) 2xDVD9 | Лицензия

45 | 19

15 ГБ

В этой теме нет новых непрочитанных сообщений. Однажды в Одессе / Жизнь и приключения Мишки Япончика [01-12 из 12] (2011) DVDRip от RiperAM

1144 | 125

7.04 ГБ




Вы не можете начинать темы
Вы не можете отвечать на сообщения
Вы не можете редактировать свои сообщения
Вы не можете удалять свои сообщения
Вы не можете добавлять вложения

Перейти:  
Для Мосгорсуда, Роскомнадзора и рекламодателей: mosgorsud-torrent[собачка]yandex.ru
 Вход
ppkBB3cker v.2 © 2008-2014 @ PPK
[ Time : 0.037s | 14 Queries | GZIP : Off ]

Торрент трекер RUTOR.IN, Не можете зайти на rutor.org? Какой новый адрес рутор? Какое зеркало рутор? Не работает rutor.org и зеркала? Тогда наш торрент специально для вас. Rutor.in неофициальное зеркало rutor. В случае если у Вас заблокирован rutor или вдруг Вы не можете на него зайти, то Вы без труда сможете скачать бесплатно и без рекламы последние новинки кино, игр, сериалов и прочего у нас, на Rutor.in. Не нужно использовать прокси, чтобы зайти на рутор, достаточно воспользоваться нашим ресурсом. Все новые фильмы, игры, сериалы, книги и музыка за 2013 и 2014 годы через торрент бесплатно. Скачивайте фильмы в хорошем качестве, игры для пк, xbox, playstation без регистрации. У нас вы найдете новые Зарубежные сериалы и Русские сериалы 2013, 2014, 2015 годов. Оставайтесь с нами, качайте любимые фильмы, игры, сериалы, книги и музыку.