img image001 image001 image001 image001 image001 image001 image001 image001 image001 image001 image001 image001 image001 image001 image001

Planets Sun Sun Sun
Статистика раздачи
Автор: Снежана | Размер: 20.26 ГБ | Добавлен: 25 июл 2013
Раздают: 30    Качают: 16
Скачать торрент
Скачать торрент
Описание торрента

СообщениеДобавлено: 25 июл 2013 

#77


Информация о фильме
Оригинальное название: Пятницкий
Год выпуска: 2011
Жанр: Детектив
Выпущено: Телекомпания "Дикси-ТВ"
Режиссер: Сергей Лесогоров, Мичислав Юзовский, Игорь Холодков, Юрий Попович
В ролях: Виктория Тарасова, Виктория Герасимова, Анна Липко, Антон Батырев, Дмитрий Мазуров, Сергей Гурьев, Андрей Перунов, Антон Афанасьев, Алексей Матошин, Андрей Снежко, Денис Жариков, Дмитрий Янышевский, Денис Оншин, Бесо Гатаев, Анна Исманова, Федор Румянцев, Николай Дроздовский, Сергей Ларин, Евгений Сафронов, Анастасия Лазарева, Александр Воробьёв, Ника Балина, Дмитрий Каменщиков, Владислав Шкляев

О фильме: «Пятницкий» - сериал о жизни и работе отдела внутренних дел в одном из районов Москвы. Начальница - подполковник Ирина Зимина - по-прежнему варится в котле бытовых и рабочих проблем, борется с подчиненными, точнее - с их пороками, следит за порядком и соблюдением правил и пытается все держать под контролем. Ей приходится принимать активное участие во всех делах своих коллег. Особенно это касается ближнего круга - новой начальницы дознания, крутящей роман с одним из оперативных работников, жуликоватого участкового, двоих патрульных, инспектора по делам несовершеннолетних, начальника милиции общественной безопасности, троицы сообразительных следователей и даже начальника полиции округа — генерала Захарова.
Релиз:


Выпущено: Телекомпания "Дикси-ТВ"
Продолжительность: 32 х ~00:45:33
Язык: Русский

Файл
Качество: IPTVRip
Видео кодек: XviD
Видео: 720x400 (1.80:1), 25 fps, XviD MPEG-4 ~1857 kbps avg, 0.26 bit/pixel
Аудио: 48 kHz, MPEG Layer 3, 2 ch, ~192.00 kbps avg

General
Complete name : Z:ftp4VideosPyatnitskiy.02 sezon.2011.XviD.IPTVRip-KinoZalSatPyatnitskiy-2.02 seriya.2011.XviD.IPTVRip-KinoZalSat.avi
Format : AVI
Format/Info : Audio Video Interleave
File size : 651 MiB
Duration : 44mn 15s
Overall bit rate : 2 056 Kbps
Writing application : VirtualDubMod 1.5.4.1 (build 2178/release)
Writing library : VirtualDubMod build 2178/release

Video
ID : 0
Format : MPEG-4 Visual
Format profile : Advanced Simple@L5
Format settings, BVOP : No
Format settings, QPel : No
Format settings, GMC : No warppoints
Format settings, Matrix : Custom
Codec ID : XVID
Codec ID/Hint : XviD
Duration : 44mn 15s
Bit rate : 1 857 Kbps
Width : 720 pixels
Height : 400 pixels
Display aspect ratio : 16:9
Frame rate : 25.000 fps
Color space : YUV
Chroma subsampling : 4:2:0
Bit depth : 8 bits
Scan type : Progressive
Bits/(Pixel*Frame) : 0.258
Stream size : 588 MiB (90%)
Writing library : XviD 1.2.1 (UTC 2008-12-04)

Audio
ID : 1
Format : MPEG Audio
Format version : Version 1
Format profile : Layer 3
Mode : Joint stereo
Mode extension : MS Stereo
Codec ID : 55
Codec ID/Hint : MP3
Duration : 44mn 15s
Bit rate mode : Constant
Bit rate : 192 Kbps
Channel(s) : 2 channels
Sampling rate : 48.0 KHz
Stream size : 60.8 MiB (9%)
Alignment : Aligned on interleaves
Interleave, duration : 80 ms (2.00 video frames)
Interleave, preload duration : 504 ms
Writing library : LAME3.98r
Encoding settings : -m j -V 4 -q 2 -lowpass 18.6 -b 192



Внимание! Раздача ведётся путём добавления новых серий
Внимание! Раздача ведётся путём добавления новых серий; при каждом добавлении создётся новый торрент.
Чтобы начать докачку новой серии, пользователям необходимо сделать следующее:
1) остановить скачивание
2) удалить старый торрент у себя из клиента (старые серии удалять не надо)
3) скачать новый торрент и запустить его у себя в клиенте вместо старого, при этом указать клиенту путь в старую папку куда и должно происходить скачивание новых серий.
Ваш клиент при этом должен произвести хеширование (проверку) старой папки (если не производит сам - помогите ему сделать это), и будет докачивать только те серии которых у вас ещё нет. Старые серии при этом не удаляются, а продолжают раздаваться!
Eсли вы уже удалили старые серии, то предотвратить повторную закачку старых серий можно, отжав галочку в соответствовавших местах при запуске нового торрента.


01. Полиция
02. Всё из-за бюрократии
03. Проект
04. Урок
05. Сила слов
06. Кровь на дороге
07. По счёту
08. Неизвестные
09. Свидетель
10. Долг
11. Противостояние
12. Возвращение
13. Участь Фомина
14. Личная страничка полковника Зиминой
15. Жизнь за жизнь
16. Где-то рядом
17. Побег
18. Пуговица
19. Опережение
20. Тревога
21. Ложный след
22. Судья
23. Насилие
24. Простые вещи
25. Кадры
26. Метка
27. Пациент
28. Преступление без наказания
29. Момент истины
30. Один из нас
31. Просыпается шериф
32. Палачи





Добавлены 31,32 серии



   Похожие торренты   Торрент   Размер 
В этой теме нет новых непрочитанных сообщений. Пятницкий. Пятницкий [5-6 серии] (2010) IPTVRip от Кosmos

23 | 8

1.37 ГБ

В этой теме нет новых непрочитанных сообщений. Каменская 6 [01-12 из 12] (2011) IPTVRip от KinoZalSat

65 | 9

6.45 ГБ

В этой теме нет новых непрочитанных сообщений. Провокатор [01-04 из 04] (2011) IPTVRip от KinoZalSat

13 | 9

2.16 ГБ

В этой теме нет новых непрочитанных сообщений. Все, что нам нужно... [01-04 из 04] (2011) IPTVRip от KinoZalSat

3 | 1

2.35 ГБ

В этой теме нет новых непрочитанных сообщений. Карамель [01-40 из 40] (2011) IPTVRip от KinoZalSat

2 | 4

25.31 ГБ

В этой теме нет новых непрочитанных сообщений. Детективы [01-150] (2011) IPTVRip от KinoZalSat

7 | 4

44.12 ГБ

В этой теме нет новых непрочитанных сообщений. Жених (2011) IPTVRip от KinoZalSat

20 | 4

1.41 ГБ




Вы не можете начинать темы
Вы не можете отвечать на сообщения
Вы не можете редактировать свои сообщения
Вы не можете удалять свои сообщения
Вы не можете добавлять вложения

Перейти:  
Для Мосгорсуда, Роскомнадзора и рекламодателей: mosgorsud-torrent[собачка]yandex.ru
 Вход
ppkBB3cker v.2 © 2008-2014 @ PPK
[ Time : 0.070s | 14 Queries | GZIP : Off ]

Торрент трекер RUTOR.IN, Не можете зайти на rutor.org? Какой новый адрес рутор? Какое зеркало рутор? Не работает rutor.org и зеркала? Тогда наш торрент специально для вас. Rutor.in неофициальное зеркало rutor. В случае если у Вас заблокирован rutor или вдруг Вы не можете на него зайти, то Вы без труда сможете скачать бесплатно и без рекламы последние новинки кино, игр, сериалов и прочего у нас, на Rutor.in. Не нужно использовать прокси, чтобы зайти на рутор, достаточно воспользоваться нашим ресурсом. Все новые фильмы, игры, сериалы, книги и музыка за 2013 и 2014 годы через торрент бесплатно. Скачивайте фильмы в хорошем качестве, игры для пк, xbox, playstation без регистрации. У нас вы найдете новые Зарубежные сериалы и Русские сериалы 2013, 2014, 2015 годов. Оставайтесь с нами, качайте любимые фильмы, игры, сериалы, книги и музыку.