img image001 image001 image001 image001 image001 image001 image001 image001 image001 image001 image001 image001 image001 image001 image001

Planets Sun Sun Sun
Статистика раздачи
Автор: Снежана | Размер: 7 ГБ | Добавлен: 25 июл 2013
Раздают: 3    Качают: 6
Скачать торрент
Скачать торрент
Описание торрента

СообщениеДобавлено: 25 июл 2013 

#77

Информация о фильме
Название: В полдень на пристани
Год выхода: 2011
Жанр: Мелодрама
Режиссер: Юсуп (Юсуф) Разыков
В ролях: Полина Сыркина, Константин Стрельников, Сергей Комаров (II), Анна Казючиц, Елена Дубровская


О фильме: Родители Даши погибли, когда она была еще ребенком, но девочка еще долго ждала их у ограды дома – бабушка не решалась рассказать ей правду. Проходят годы, Даша встречает свою любовь и будущее видится счастливым и безоблачным. Но в ее жизнь снова возвращается ожидание, неопределенность и страх потерять самого близкого человека. Ее избранник, военный летчик Костя, вынужден уехать на несколько дней. Он назначает девушке встречу в полдень на пристани, но не приходит. По дороге банда хулиганов выбрасывает его на ходу из поезда. Но Даша не теряет надежды и вновь и вновь приходит в ожидании любимого в полдень на пристань.








Файл
Качество: DVB
Видео: MPEG 2, 720x576 (4:3), 25.000 fps, 5392 Kbps (0.520 bit/pixel)
Аудио: MPEG1 Layer 2, 48.0 KHz, 2 ch, 256 Kbps, CBR
Продолжительность: ~ 0:43:00 серия
Перевод: Не требуется

Общее
Полное имя : H:РаздачиВ полдень на пристаниВ полдень на пристани.01.mpg
Формат : MPEG-PS
Размер файла : 1,75 Гбайт
Продолжительность : 43 м.
Режим общего битрейта : Переменный
Общий поток : 5763 Кбит/сек
Библиотека кодирования : (c) 1998-2011 Womble Multimedia, Inc. / MPEG Video Wizard DVD 5.0.1.100 (03/2011) / Dec 15 2011

Видео
Идентификатор : 224 (0xE0)
Формат : MPEG Video
Версия формата : Version 2
Профиль формата : Main@Main
Параметр BVOP формата : Да
Параметр матрицы формата : Выборочная
Параметр GOP формата : M=2, N=12
Продолжительность : 43 м.
Вид битрейта : Переменный
Битрейт : 5392 Кбит/сек
Максимальный битрейт : 10000 Кбит/сек
Ширина : 720 пикселей
Высота : 576 пикселей
Соотношение сторон : 4:3
Частота кадров : 25,000 кадров/сек
Стандарт вещания : PAL
Цветовое пространство : YUV
Субдискретизация насыщенности : 4:2:0
Битовая глубина : 8 бит
Тип развёртки : Чересстрочная
Порядок развёртки : Верхнее поле первое
Метод сжатия : С потерями
Бит/(Пиксели*Кадры) : 0.520
Размер потока : 1,64 Гбайт (94%)
Библиотека кодирования : (c) 1998-2011 Womble Multimedia, Inc. / MPEG Video Wizard DVD 5.0.1.100 (03/2011) / Dec 15 2011

Аудио
Идентификатор : 192 (0xC0)
Формат : MPEG Audio
Версия формата : Version 1
Профиль формата : Layer 2
Продолжительность : 43 м.
Вид битрейта : Постоянный
Битрейт : 256 Кбит/сек
Каналы : 2 канала
Частота : 48,0 КГц
Метод сжатия : С потерями
Размер потока : 79,7 Мбайт (4%)

Меню







   Похожие торренты   Торрент   Размер 
В этой теме нет новых непрочитанных сообщений. В полдень на пристани [01-04 из 04] (2011) SATRip

340 | 26

1.99 ГБ

В этой теме нет новых непрочитанных сообщений. В полдень на пристани [01 из 02] (2011) от Generalfilm-Files-x

154 | 50

2.73 ГБ

В этой теме нет новых непрочитанных сообщений. В полдень на пристани [01-04 из 04] (2011) IPTVRip от KinoZalSat

68 | 11

2.14 ГБ

В этой теме нет новых непрочитанных сообщений. В полдень на пристани [01-02 из 02] (2011) HDTV 1080i от MediaClub

15 | 3

10.49 ГБ

В этой теме нет новых непрочитанных сообщений. В полдень на пристани [01-02 из 02] (2011) HDTVRip 720p от MediaClub

37 | 20

7.39 ГБ

В этой теме нет новых непрочитанных сообщений. В полдень на пристани [01 из 02] (2011) HDTVRip 720p от MediaClub

15 | 16

3.69 ГБ

В этой теме нет новых непрочитанных сообщений. Павел Корнев - Приграничье 4. Черный полдень (2009) (2011) МР3

222 | 12

486.42 МБ




Вы не можете начинать темы
Вы не можете отвечать на сообщения
Вы не можете редактировать свои сообщения
Вы не можете удалять свои сообщения
Вы не можете добавлять вложения

Перейти:  
Для Мосгорсуда, Роскомнадзора и рекламодателей: mosgorsud-torrent[собачка]yandex.ru
 Вход
ppkBB3cker v.2 © 2008-2014 @ PPK
[ Time : 0.100s | 14 Queries | GZIP : Off ]

Торрент трекер RUTOR.IN, Не можете зайти на rutor.org? Какой новый адрес рутор? Какое зеркало рутор? Не работает rutor.org и зеркала? Тогда наш торрент специально для вас. Rutor.in неофициальное зеркало rutor. В случае если у Вас заблокирован rutor или вдруг Вы не можете на него зайти, то Вы без труда сможете скачать бесплатно и без рекламы последние новинки кино, игр, сериалов и прочего у нас, на Rutor.in. Не нужно использовать прокси, чтобы зайти на рутор, достаточно воспользоваться нашим ресурсом. Все новые фильмы, игры, сериалы, книги и музыка за 2013 и 2014 годы через торрент бесплатно. Скачивайте фильмы в хорошем качестве, игры для пк, xbox, playstation без регистрации. У нас вы найдете новые Зарубежные сериалы и Русские сериалы 2013, 2014, 2015 годов. Оставайтесь с нами, качайте любимые фильмы, игры, сериалы, книги и музыку.