img image001 image001 image001 image001 image001 image001 image001 image001 image001 image001 image001 image001 image001 image001 image001

Planets Sun Sun Sun
Статистика раздачи
Автор: Снежана | Размер: 15 ГБ | Добавлен: 25 июл 2013
Раздают: 45    Качают: 19
Скачать торрент
Скачать торрент
Описание торрента

СообщениеДобавлено: 25 июл 2013 

#77

Информация о фильме
Название: Однажды в Одессе / Жизнь и приключения Мишки Япончика
Год выхода: 2011
Жанр: драма, мелодрама
Режиссер: Сергей Гинзбург
В ролях: Евгений Ткачук, Елена Шамова, Валентин Гафт, Римма Маркова, Всеволод Шиловский, Владимир Долинский, Алексей Филимонов, Вадим Норштейн, Илья Лыков, Игорь Арташонов, Артем Ткаченко, Александр Лазарев (младший), Игорь Савочкин, Сергей Марин (II), Олег Школьник, Ирина Токарчук, Валерий Бассэль, Екатерина Копанова, Яна Поплавская, Андрей Ургант, Александр Ильин, Павел Прилучный, Михаил Богдасаров

О фильме:
Мишка Японец (Мойша Винницкий, прототип Бени Крика из «Одесских рассказов» Бабеля) – не просто обычный налетчик с одесским колоритом. Стать королем воров, держать в страхе весь город, и одновременно быть народным любимцем мог только человек неординарный. Его популярность колоссальна - в нем видят «Робин Гуда», который радеет за народ, он утверждает свой «кодекс налетчика» - бедняков не грабить, не трогать врачей, юристов, артистов. Его налеты становятся все более артистичными и остроумными, это маленькие спектакли. Миша расчетлив, рационален, но у него широкая душа: он закатывает пиры для всей Молдаванки, снабжает деньгами безработных грузчиков, помогает деньгами и продуктами молодоженам, сиротам, бездомным и даже семьям жертв бандитских налетов.

Выпущено: Россия / Star Media
Продолжительность: 12 x ~ 00:51:00
Озвучивание: Оригинальное [лицензия]

Title:
Size: 7.42 Gb ( 7 782 112 KBytes ) - DVD-9
Enabled regions: 1, 2, 3, 4, 5, 6, 7, 8

VTS_01 :
Play Length: 05:05:51
Video: PAL 16:9 (720x576) VBR, Auto Letterboxed
Audio:
English (Dolby AC3, 2 ch)

Menu Video:
PAL 4:3 (720x576) VBR
Menu Audio:
Not specified (Dolby AC3, 2 ch)
Menu Subtitles:
Not specified
Menu Russian Language Unit :
Root Menu
Title:
Size: 7.58 Gb ( 7 947 986 KBytes ) - DVD-9
Enabled regions: 1, 2, 3, 4, 5, 6, 7, 8

VTS_01 :
Play Length: 05:05:40
Video: PAL 16:9 (720x576) VBR, Auto Letterboxed
Audio:
English (Dolby AC3, 2 ch)

Menu Video:
PAL 4:3 (720x576) VBR
Menu Audio:
Not specified (Dolby AC3, 2 ch)
Menu Subtitles:
Not specified
Menu Russian Language Unit :
Root Menu
Общее
Полное имя : G:Новинки 2011Odnazhdy.v.Odesse.2011.2xDVD9DVD-1VIDEO_TSVTS_01_1.VOB
Формат : MPEG-PS
Размер файла : 1024 Мбайт
Продолжительность : 42 м.
Общий поток : 3367 Кбит/сек

Видео
Идентификатор : 224 (0xE0)
Формат : MPEG Video
Версия формата : Version 2
Профиль формата : Main@Main
Параметр BVOP формата : Да
Параметр матрицы формата : Выборочная
Продолжительность : 42 м.
Вид битрейта : Переменный
Битрейт : 3108 Кбит/сек
Максимальный битрейт : 7000 Кбит/сек
Ширина : 720 пикселей
Высота : 576 пикселей
Соотношение сторон : 16:9
Частота кадров : 25,000 кадров/сек
Стандарт вещания : PAL
Цветовое пространство : YUV
Субдискретизация насыщенности : 4:2:0
Битовая глубина : 8 бит
Тип развёртки : Чересстрочная
Порядок развёртки : Верхнее поле первое
Метод сжатия : С потерями
Бит/(Пиксели*Кадры) : 0.300
Размер потока : 945 Мбайт (92%)

Аудио
Идентификатор : 189 (0xBD)-128 (0x80)
Формат : AC-3
Формат/Информация : Audio Coding 3
Расширение режима : CM (complete main)
Режим смешивания : DVD-Video
Продолжительность : 42 м.
Вид битрейта : Постоянный
Битрейт : 192 Кбит/сек
Каналы : 2 канала
Расположение каналов : Front: L R
Частота : 48,0 КГц
Битовая глубина : 16 бит
Метод сжатия : С потерями
Размер потока : 58,4 Мбайт (6%)


Файл
Формат: DVD Video
Качество: DVD R5
Видео: PAL 16:9 (720x576(0.300)) MPEG Video, 25,000 кадр/сек, 3108 Кбит/сек
Аудио: Russian (Dolby AC3, 2 ch) 192 Кбит/сек, 48,0 КГц
Субтитры: нет
Размер: 15 GB
Дополнительно: нет




Релиз группы:



   Похожие торренты   Торрент   Размер 
В этой теме нет новых непрочитанных сообщений. OST - Однажды в Одессе / Жизнь и приключения Мишки Япончика (2011) MP3

140 | 4

80.33 МБ

В этой теме нет новых непрочитанных сообщений. Однажды в Одессе / Жизнь и приключения Мишки Япончика [01-12 из 12] (2011) 12xDVD5

17 | 18

32.68 ГБ

В этой теме нет новых непрочитанных сообщений. Однажды в Одессе / Жизнь и приключения Мишки Япончика [01-12 из 12] (2011) WEB-DL (720p)

603 | 103

17.51 ГБ

В этой теме нет новых непрочитанных сообщений. Однажды в Одессе / Жизнь и приключения Мишки Япончика [01-12 из 12] (2011) WEB-DLRip-AVC

255 | 35

7.83 ГБ

В этой теме нет новых непрочитанных сообщений. Однажды в Одессе / Жизнь и приключения Мишки Япончика [01-12 из 12] (2011) DVDRip-AVC

756 | 130

8.35 ГБ

В этой теме нет новых непрочитанных сообщений. Однажды в Одессе / Жизнь и приключения Мишки Япончика [01-12 из 12] (2011) DVDRip | КПК от Generalfilm

117 | 32

2.06 ГБ

В этой теме нет новых непрочитанных сообщений. Однажды в Одессе / Жизнь и приключения Мишки Япончика [01-12 из 12] (2011) DVDRip | КПК от Generalfilm

229 | 41

2.38 ГБ




Вы не можете начинать темы
Вы не можете отвечать на сообщения
Вы не можете редактировать свои сообщения
Вы не можете удалять свои сообщения
Вы не можете добавлять вложения

Перейти:  
Для Мосгорсуда, Роскомнадзора и рекламодателей: mosgorsud-torrent[собачка]yandex.ru
 Вход
ppkBB3cker v.2 © 2008-2014 @ PPK
[ Time : 2.314s | 14 Queries | GZIP : Off ]

Торрент трекер RUTOR.IN, Не можете зайти на rutor.org? Какой новый адрес рутор? Какое зеркало рутор? Не работает rutor.org и зеркала? Тогда наш торрент специально для вас. Rutor.in неофициальное зеркало rutor. В случае если у Вас заблокирован rutor или вдруг Вы не можете на него зайти, то Вы без труда сможете скачать бесплатно и без рекламы последние новинки кино, игр, сериалов и прочего у нас, на Rutor.in. Не нужно использовать прокси, чтобы зайти на рутор, достаточно воспользоваться нашим ресурсом. Все новые фильмы, игры, сериалы, книги и музыка за 2013 и 2014 годы через торрент бесплатно. Скачивайте фильмы в хорошем качестве, игры для пк, xbox, playstation без регистрации. У нас вы найдете новые Зарубежные сериалы и Русские сериалы 2013, 2014, 2015 годов. Оставайтесь с нами, качайте любимые фильмы, игры, сериалы, книги и музыку.